&title=Auxesia
&artist=ginkiha
&first=0
&des=RyoamE
&lv_5=14
&des_5=
&inote_5=(183)
{16},,,,
,,,,
,,,,
,,,,
{16},,,,
,,,,
,,,,
,,,,
{16}6bV84[4:5]/3b,,,,
,,,,
{32}E3,B3,,,,,,,
{16},,,,
{16},,,,
,,,,
{32}E3,B3,,,,,,,
{16},,,,
{16}1q8[4:5],,,,
,,,,
{32}E7,B6,,,,,,,
{16},,,,
{16},,,,
,,,,
{32}E7,B6,,,,,,,
{16},,,,
{16}7pp8-5[2:3],,,,
,,,,
{32}E3,B3,,,,,,,
{16},,,,
{16},,,,
,,,,
{32}E3,B3,,,,,,,
{16},,,,
{16}2V48[4:3],,,,
,,,,
{32}E7,B6,,,,,,,
{16},,,,
{16}5s1[2:1],,,,
,,,,
{32}E3,B3,,,,,,,
{16},,,,
{16}4h[8:1],,8,,
6xh[8:1],,4,,
2xh[8:1],,6,,
8,1,8,,
{16}7b/3b,,,,
6,,5,,
6h[4:1],,,,
8-5[6:1],,,,
{16}82,,,,
3,,4,,
3h[4:1],,,,
1-4[6:1],,,,
{16}17,,,,
6,,5,,
6h[4:1],,,,
8<5[6:1],,,,
{16}82,,,,
3,,4,,
3<6[6:1],,4,,
2,,,,
{16}17,,,,
B2/A2/8,,,,
16,,,,
B3/A3/8,,,,
{16}82,,,,
B7/A7/1,,,,
83,,,,
B6/A6/1,,1x,2x,
{16}3x/7x,,7,,
7x/2x,,2,,
2x/8x,7,6,5,
2x,3,4,5,
{16}8b-3[12:1],,,2b-6[12:1],
,,7b-4[12:1],,
,3b,,,
1x,5x,2x,6x,
{16}3bxqq5[4:3],,,,
,,,,
,,,,
,,,,
{16}7h[1:1],,,,
,,,,
,,,,
,,,,
{16}5,,,,
,,4,,
,,,,
3,,,,
{16}E8,,E7,,
E6,,E5,,
E2,,E3,,
E4,,E5,,
{16}6h[2:1],,,,
,,,,
5,,,,
,,,,
{16}2h[2:1],,,,
,,,,
4,,,,
,,,,
{16}7h[4:3],,,,
,,5,,
,,,,
3,,,,
{16}1h[4:3]/8p3[3:1],,,,
,,,,
,,,,
3,4,5,6,
{16}7xv6-4[2:1]/2bx,,3,,
,,3,,
,,3,,
,,3,,
{16}2v1V35[8:5],,6,,
,,6,,
,,6,,
,,6,,
{16}7v8V64[8:5],,3,,
,,3,,
,,3,,
,,3,,
{16}2h[4:1],,4,,
5,,6,,
7h[4:1],,5,,
4,,3,,
{16}8,,4,,
73,,4,,
8,,4,,
73,,4,,
{16}5,,1,,
62,,1,,
5,,1,,
62,,1,,
{16}8,,4,,
73,,4,,
8,,4,,
73,,4,,
{16}8,4,6,2,
8xh[8:1],,3,,
6xh[8:1],,2,,
{24}5x,6,7,1,2,3,
{16}84,,,,
7/5,,6,,
5-1[6:1]/3,,4,,
7/5,,,,
{16}78,,6,,
45,,3,,
1-5[6:1]/2,,8-6[8:1],,
,,,,
{16}4,,3,,
2/4,,3,,
4-8[6:1]/6,,5,,
2/4,,,,
{16}21,,3,,
54,,6,,
8-4[6:1]/7,,1-3[8:1],,
,,,,
{16}5,,6,,
74,,3,,
26,,7,,
83,,2,,
{16}15,,2,,
38,,7,,
62,,3,,
47,,6,5,
{16}42,,2,,
37,,7,,
61,2,3,4,
1,8,7,6,
{16}5pp8[2:1]/1pp4[2:1],,,,
,,,,
,,,,
,,,,
{16}5xh[8:1]/6bx,,7,,
6/4,,3,,
4h[8:1]/5,,7,,
5/3,,1,,
{16}5h[8:1]/4-1[6:1],,2,,
4-7[6:1]/6,,5,,
2/4,,3,,
4/6,,5,,
{16}4h[8:1]/3,,2,,
4/5,,6,,
5h[8:1]/4,,2,,
5/6,,8,,
{16}4h[8:1]/5-8[6:1],,7,,
5-2[6:1]/3,,4,,
7/5,,6,,
5/3,,2,,
{16}8x<4[4:1]/4x,,,,
4>8[4:1],,,,
8<4[4:1],,,,
4,,,,
{16}1V35[4:1],,,,
5V71[4:1],,,,
1-3[8:1],,,,
5,,5,6,
{16}47,,47,,
25,,25,,
4,6,3,7,
2,8,3,7,
{16}1b-5[12:1],,,6b/1b,
,,8b-4[12:1],,
,8b/3b,,,
3,5,2,6,
{16}8x<6pp4>1[4:5],,,,
,,,,
,,,,
,,,,
{16}4<7[4:1],,,,
,,,,
,,,,
B8,C,B4,,
{16}7bx-4[6:1]/3bx,,8,,
74,,3,,
2-5[6:1],,4,,
25,,6,,
{24}7,,,8x,7x,6x,
{16}3/5xh[4:1],,1,,
3xh[4:1],,8,,
5xh[4:1],,1,,
{16}2-6[8:1],,6-4[8:1],,
2,,7,,
8-2[8:1],,2-6[8:1],,
8,,3,,
{16}5,,8,,
65,,3,,
46,,7,,
45,,3,,
{16}2x-5[6:1]/4x,,1,,
25,,6,,
7-4[6:1],,5,,
74,,3,,
{24}2,,,1x,2x,3x,
{16}6/4xh[4:1],,8,,
6xh[4:1],,1,,
4xh[4:1],,8,,
{16}7b-3[8:1],,3-5[8:1],,
7,,2,,
1-7[8:1],,7-3[8:1],,
1,,6,,
{16}4,,1,,
34,,6,,
53,,2,,
54,,6,,
{16}7x-4[6:1]/5x,,8,,
74,,3,,
2-5[6:1],,1,,
25,,6,,
{24}7,,,5x/8x,4x/7x,3x/6x,
{16}2x/5xh[8:1],,8,,
3xh[8:1]/6x,,1,,
6xh[8:1]/4x,,8,,
{16}25,,2,,
38,,3,,
24,,1,,
75,,8,,
{16}61,,6,,
74,,7,,
61,,7,,
38,,2,1,
{16}38,,38,,
16,,16,,
4,8,4,8,
2,6,2,6,
{16}1>7[3:1],,,,
8xh[8:1],,,,
8xw4[6:1],,,,
,,,,
{16}2x/6xh[4:1],,,,
3x,,6,5,
7,,3,,
6<1[6:1],5,7,4,
{16}6,,,,
2x,,5,4,
6,,2,,
5<8[6:1],4,6,3,
{16}5,,,,
1x,,4,3,
5,,1,,
4<7[6:1],3,5,2,
{16}4,,,,
1x,,6,5,
6,4,8,,
3,4,3,5,
{16}1,,,,
6x,,3,4,
2,,6,,
3>8[6:1],4,2,5,
{16}3,,,,
7x,,4,5,
3,,7,,
4>1[6:1],5,3,6,
{16}4,,,,
8x,,5,6,
4,,8,,
5>2[6:1],6,4,7,
{16}5,,,,
8x,,3,4,
2,,6,5,
7,2,8,3,
{16}1bx-6[8:1],,2,,
4x-7[8:1],,3,,
1-6[8:1],,2,,
4x,,3,,
{16}1-5[8:1],,2-4[8:1],,
1x,,2,,
6-8[8:1],,1-5[8:1],,
6x,,1,,
{16}8x-3[8:1],,7,,
5x-2[8:1],,6,,
8-3[8:1],,7,,
5x,,6,,
{16}8-4[8:1],,7-5[8:1],,
8x,,7,,
3-1[8:1],,8-4[8:1],,
3x,,8,,
{16}1x,,5,,
3,4,3,,
28,,5,4,
6,4,5,,
{16}3x/7x,,4,,
6,5,6,,
71,,4,5,
3,5,4,6,
{16}5,,47,,
4,,52,,
6,5,8,1,
4,3,8,1,
{16}6b-3[12:1],,,2b-5[12:1],
,,7b<1[3:1],,
,,,,
,,,,
{16}4bx/8bx<6pp3>1[2:3],,,,
,,,,
,,,,
,,,,
{16},,,,
,,,,
,,,,
,,,,
{16}3qq5[4:3],,,,
,,,,
,,,,
,,,,
{16}6pp4[4:3],,,,
,,,,
,,,,
,,,,
{16}2,,3h[4:1],,
4,,6,,
7,,6h[4:1],,
5,,3,,
{16}2h[2:1],,4,,
5,,6,,
7h[2:1],,6,,
5,,4,,
{16}2,,3h[4:1],,
4,,5,,
7,,6h[4:1],,
5,,3,,
{16}2h[4:1],,8,,
6,,4,,
7h[4:1],,1,,
3,,5,,
{16}1w5[4:7],,
E
