&title=幸福絶頂!! りむ・で・らてんと☆
&artist=Alliance Arts inc. and まろん(IOSYS)
&first=-0.78
&des=zenusan
&lv_5=13+
&des_5=zenusan
&inote_5=
(184){4},,,,B7/E7/B6,
2v3[4:1],,5xh[4:1],
{16}2,4,2,4,3,5,3,5,4,6,4,6,5,7,5,7,
{1}6h[4:7],
{24}1,{48}8,7h[16:11],{4},,,{16},,{24},{8}E6,
E5,E4,E3,{4}1x-5[8:1]*-6[8:1],1b,
4v1[8:1]*v7[8:1],4,5v2[8:1]*v8[8:1],5,
1p2[4:1],{8}7,6V85[16:3],{2}5-1[0.4076##0.163],
{4}4v1[8:1]*v7[8:1],4,5v8[8:1]*v2[8:1],5,
4-8[8:1],4-2-8<5[16:5]*-6-8>3[16:5],,,1v4[8:1]/7v4[8:1],
1/7,2v5[8:1]/8v5[8:1],2/8,
1v4[8:1]/7v4[8:1],1/7,{8},2,3,4,
6,5,4,1,2,3,7,6-3[8:1],
,6/2,1h[4:1],8h[8:1],,,{4}8b/1b,
2q5[8:3],2,{8}7,8-4[8:1],,8,
,3/5,{4}4qq4[4:1],{2}4pp4[4:1],
{4}8-4[8:1],8,{8}1/7,2q5[8:3],,2,
,8,{4}7-2-7[4:1],{2}3h[8:3]/7-4[8:1],
{8}2,2,3,3,{4}4-1[8:1],{8}4,7h[4:1],
,8,{4}1<6-4[4:1]/2>4<5-7[4:1],{8}1/2,,,8b/3bh[8:3],
,5,5,1b/6bh[8:3],,4,4,2bh[8:1]/1bh[8:1],
,3/8,3/8,6bh[8:1]/5bh[8:1],,4/7,{4}4-2[8:1]/7-1[8:1],
4/7,{8}3/8,7,6/4,5-8[8:1]*-1[8:1],,5,
,2/7h[8:3],3-1v8-6[2:1],4,,,,,{4}5-1[8:1]*-8[8:1],
5,{8}3/7,2-7[8:1]/6-3[8:1],,2/6,
,8/4,{4}5/1-5-3[4:1],{2}8-6[8:1],
{8}2/5,{16}3,4,{8}3,2/5,3,4,5,6<1[8:1],
,4,4,3-8[8:1],,,{4}7h[4:1],
{8}8b,6b/1b,,3/5b,4b/6,2b/5,7b/4,3bh[4:1]/6h[4:1],
,,{4}2bv5[8:1]/7bv4[8:1],2b/7b,1b/8b,
{8}7/4,{16}6,5,{8}6,4/7h[2:1],{16}2,B3,,2,{8}A3,2,
8x,8x,4/3,5/2h[2:1],{16}7,B6,,7,{8}A6,7,
{4}1xh[4:1],{8}7,6/5,{16}2,4x/B3,,2,{8}4x/A3,2,
8/1,7,6/8-4[8:1],5,{4}4bw8[8:1],B4/B5/B3/B8/B1/B7/Cf,
{8}2/5,{16}3,4,{8}3,2,{16}6,E5,,4,{8}E6,6<1[8:1],
,6,2,3b-8[0.2446##0.163]/4b-7[0.2446##0.163],{16},3b/4b,,,,,{8}1/8h[8:3],
2,3,4,6/5h[4:1],7,8<5[8:1],,8/1,
2,3-8[8:1]*-7[8:1],,E4/D3/A3f,,,{4}1x>4[8:3],
{8}4,4<7[4:1],7,7>2[4:1],2,2>5[4:1],5,5<7[8:1],
8,8,1,2/8,{4}3-6[8:1]/7-4[8:1],3/7,
{8}8,8<5[4:1]*<5[4:1],5,5>2[4:1]*>2[4:1],2,2<7[4:1]*<7[4:1],7,7<5[8:1]*<5[8:1],
4,4,3,4/2,{4}1-4[8:1]/5-8[8:1],1/5,
{8}1,1-3<4[4:1],4,4-6<7[4:1],7,7-1>2[4:1],2,2-4[8:1],
5,5,6,7/5,{4}8-4[8:1]*-3[8:1],8,
{8}8<7<6>5b[0.4891##0.3261],8<5[4:1],5>4>3>2b[0.4891##0.3261],5>2[4:1],2<1<8b[0.4891##0.163],2<8[8:1],7,7,
4,3/5,3/5,2/6,{4}2b-5[8:1]/6b-1[8:1],2b/6b/Cf/E2/E6/B3/B4/B8/B7,
{1},,,{8}8x/1x,
{16}B2,B3,{8}B4h[2:1],{16}B7,B6,{4}B5h[4:1],Cf,
{8}2b/5b,3b-1[8:1]/4b-1[8:1],,4b/3b,,8,{4}8,
{8}5b/7b,6bp2[8:1]*v1[8:1],,6b,,8,{4}8,
{8}5/3bh[8:1],1,4/6xh[8:1],8,2/5bh[8:1],1,7/4xh[8:1],8,
3/5bh[8:1],1,6/4xh[8:1],8,7b/2b,2b/7b,,8/1,
{16}3b,4,3,4,3,4,2,4,3b,4,3,4,3,4,2,4,
3b,4,3,4,3,4,2,4,3b,4,3,4,3,4,{8}2,
3b/5b,5/3,4b/6b,6/4,5b/7b,7/5,6b/4b,6/4,
{16}3b,5,3,5,4b,5,4,5,3b,6,3,6,2b,7,2,7,
{24}1x,8x,1x,8x,1x,8x,1x,8x,1x,8x,1x,8x,1x,8x,1x,8x,1x,8x,1x,8x,1x,8x,1x,8x,
{4}1x-5[2:1],E7fh[2:1],{8},,,,6/4-7[8:1],
3,4/2-5[8:1],1,2/8-3[8:1],7,8/6>8[4:1],5,
{4}6/4-7-2[4:1],{8}4,6h[4:1],,1-3[8:1],,1,
{4}8-5[8:1],8>3[8:1]*-2>3[8:1],8<5[8:1]*-5[8:1],8v3b[8:1],
{8}8,5,6,7/1,8/3,2/5,4/6,3qq8[16:5],
,7,{4}6-1[8:1]*-2b[8:1],6,{8}A4/E5/E4/D5/D4/B4f,7qq4[8:3],
,8,8,1,2,2>5[8:1],,2,
{4}8b-6-4[8:1],{8}8,3b-7[8:1],,3b-8[8:1]*-6[8:1],,3b,
,5b/4b,6b/3b,7b/2b,{16}1,8,2,8,1,8,2,8,
{8}1-6[8:1],2,1/3-8[8:1],4,3/5-2[8:1],6,5/7>5[4:1],8,
{4}7/1-6-3[4:1],{8}1,7h[4:1],,4>8[8:1],,4,
5h[8:3],,,1b,,,{4}2>8[8:3]/8<2[8:3],
{2}2/8,{16}B2,B8,B3,B7,B4,B6,E5,E6,
{8}5xqq1[0.4891##1.1413],,,,,A8,D8,A7,
B7h[4:3],,,B6h[8:3],,2,3,4,
5bx/6bx,5bxh[4:1]/6bxh[4:1],,,2bx/4bx,2bxh[4:1]/4bxh[4:1],,,7bx/8bx,
7bxh[4:1]/8bxh[4:1],{32},,,,,,,,1bx/6bx,2bx/5bx,{16}4bxh[16:5]/3bxh[16:5],,,,,,,{4}2x>7[2:1],
{8}8,8,1,1,2,2>7[2:1],
,1,1,2,2,3>8[8:1],,3/4<7[8:1],
,4,{4}3h[4:1],8-4[8:1],8/1,
{8}5/3b,4/7b,2b/6,1v4b[4:1]/8bv5[4:1],,,,,2>5[8:1],
2,1,8,7<4[8:1],7,8,1-5[8:1],
,1/2,3,4,5/6,6/5>2[8:1],,5,
{4}8b-3[8:1],{8}8b,7b-2[8:1]*-4[8:1],,7b,,1bv3[8:1]/5bv7[8:1],
,1b/5bx,,,{2}2xh[2:1]/5x-7>8v2>3-5[0.6522##1.3044],
{8},,,,,,,,E4,
E5,E6,E7,{2}8x-4[8:1]*-3[8:1],
{4}5v8[8:1]*v2[8:1],5,4v7[8:1]*v1[8:1],4,
8q7[4:1],{8}2,3V14[16:3],{2}4-8[0.4076##0.163],
{4}5v8[8:1]*v2[8:1],5,4v1[8:1]*v7[8:1],4,
5-1[8:1],5-7-1>4[16:5]*-3-1<6[16:5],,,8v5[8:1]/2v5[8:1],
8/2,7v4[8:1]/1v4[8:1],7/1,
8v5[8:1]/2v5[8:1],8/2,{8},7,6,5,
3,4,5,8,7,6,2,3-6[8:1],
,3/7-4[8:1]*-5[8:1],8,7,,1-5[8:1],2/8,1,
,3-8[8:1]/4q8[8:1],2/5,3/4,,1v4[8:1]/7v4[8:1],,1>4-6-8[16:9]/7<4-2-8[16:9],
{16},,,,,,,,,,,,,Cfh[4:1],
E
