&title=恋色マスタースパーク ~ 爆音ジャズ ver.
&artist=東京アクティブNEETs
&first=0.030
&lv_5=13+
&des=再也不写爵士了
&inote_5=(160)
{16},,,,
,,,,
(158)
{16}2,5,
(165)
{16}3,4,3,7,
4,6,
(160)
{16}5,6h[16:3],,,
4h[16:3],,,5v6[8:1]*-3[8:1],
,,,,
,,,,
{16},2h[16:3],,,
4h[16:3],,,3-5[8:1]*v2[8:1],
,,,,
,,,,
(162.3)
{16},8h[16:3],,,
5h[16:3],,,7v8[8:1]*-5[8:1],
,,,,
,,,,
(158.9)
{16},7-3[48:5],,,
3/7,,,1-5[48:5],
,,1/5,,
,,,,
(160)
{16},6/2,,,
3/7,,,8q5[16:2]/4>1[16:2],
,,,,
,,,,
{16},4/8,,,
1/5,,,6q3[16:2]/2<7[16:2],
,,,,
,,,,
{16},1/5,,,
6/2,,,3q8[16:2]/7<4[16:2],
,,,,
,,,,
{16},8>2[16:1],,,
2,,,3-7[16:1],
,,7,,
,6>4[16:1],,,
{16}1/6,,,3-7[16:1],
,,7qq6[24:5]/3qq2[24:5],,
,,,,
{48},,,,,,,,,,,
(159.6)
{16}8<5[16:2],,,3,
8,,2,,
1q5[16:2],,8,,
7,,,,
{16}6>3[16:2],,5,,
7,,,,
8-5[8:1]*-3[8:1],,,,
,,,,
{16}1>4[16:2],,,6,
1,,7,,
8p4[16:2],,1,,
2,,,,
{16}3<6[16:2],,4,,
2,,,,
1-6[8:1]*-4[8:1],,,,
,,,,
{16}3/7,,,5,
4,,7h[16:2],,
5,,6,,
4,5,,,
{16}2h[16:2],,4,,
3,5,,,
6-1[24:2]/2-5[24:2],,,6/2,
,,,,
(158.9)
{16}3/7,,,5,
4,,7h[16:2],,
5,,6,,
4,5,,,
{16}2,,2,,
5,3,,,
8w4[24:2],,,8b,
,,,,
(162)
{16}3h[16:4],,5,,
4,,,,
6h[16:4],,4,,
5,,,,
(160)
{16}2h[16:4],,5,,
4,,,,
6h[16:4],,3,4,
5,,8,,
{16}2h[16:4],,6,,
4,,,,
7h[16:4],,3,,
5,,,,
{16}2h[16:4],,6,,
4,,2,,
8,,2/7,3/6,
4/5,,1,,
{16}1h[16:4],,4,,
5,,,,
8h[16:4],,5,,
4,,,,
{16}2h[16:4],,4,,
{48}5,,,,,,,3,,,,,
{16}7h[16:4],,5,4,
3,,8,,
{16}2,,5,,
4q5[16:4],,,,
5<1[16:4],,,,
1>5[16:4],,,,
{16}5<5[16:9],,,,
1s5[16:5],,,,
(165)
{16},,,,
,,,,
(157)
{16}7-5[16:2],,4,,
7,,,,
2-4[16:2],,5,,
2,,,,
(160.4)
{16}7-5[16:2],,4,,
7V13[48:13],,1-5[48:7],,
7,,,,
,,,,
{16}2>4[16:2],,5,,
2,,,,
8<6[16:2],,5,,
8,,,,
{16}2>4[16:2],,5,,
2<5[48:13],,8p4[48:7],,
2,,,,
,,,,
{16}3-1[16:2],,8,,
3,,,,
5-7[16:2],,8,,
5,,,,
{16}3-1[16:2],,8,,
3V51[48:13],,5w1[48:7],,
3,,,,
,,,,
(158.6)
{16}2>6[16:4],,,,
6p1[16:4],,,,
1p4[16:4],,,,
4qq3[16:5]*pp5[16:5],,,,
(161.8)
{16},,,,
,,,,
3/5,,,,
1qq4[48:25],1,,6b<3[24:8],
(159.6)
{16},,,,
,,,,
,,,,
6qq1[48:25],6,,3b<8[24:8],
(159)
{16},,,,
,,,,
,,,,
2>5[16:2],,5qq1[8:3]*<8[8:1],,
(160)
{16}2,,,,
,,,,
8,,,,
2v5[24:2]/6v1[24:2],,,6b>2[16:5]/2b<6[16:5],
{16},,,,
,,,,
,,,1-5[16:2],
{24}6-8[48:5],,,,1/6qq3[48:17],,
{16},,,,
,,,,
{24},,,,,8-4[16:2],
{48},3-1[48:5],,,,,,,,8/3pp6[24:8],,,
{16},,,,
,,,,
,,,,
8-4[16:2],,4qq3[48:11]*pp5[48:11],,
{16}8b,,,,
,,,,
{48}1<6[16:2],,,,,,,,,,,4qq1[24:7]*pp7[24:7],
{16},,,4b,
{16},,,,
,,,,
(163.8)
{16}3b>7[16:2],,,3b/7b,
,,5bpp6[8:1]*qq4[8:1],,
,5b,,,
,,,,
(157.2)
{16}6>3[16:2],,5,,
7,,,,
7,,3/6<4[48:19],,
5/2<5[48:13],,1b,,
(160)
{16},,,,
,,,,
4,,7,4,
6,5,6,,
{16}3<6[16:2],,4,,
2,,,,
2,,6/3qq4[48:19],,
4/7qq8[48:13],,8b,,
{16},,,,
,,,,
{24},2/6,,,,,
{16}3,4,3,,
{16}6>3[16:2],,5,,
7,,,,
7,,6v1[48:7]/2-5[16:2],,
5/1,,2b/6b,,
{48},,,,,,,8<5[48:5],,,,,
{16}5>2[16:2],,3,,
1s5[8:1]*z5[8:1],,,,
,,,,
{16}3q7[16:2],,4,,
2,,,,
2,,7/3>5[48:19],,
4/8>5[48:13],,1b,,
{16},,,,
,,,,
3/4,,2,5,
3,4,3,,
{16}6p2[16:2],,5,,
7,,,,
7,,2/6pp5[48:19],,
5/1pp4[48:13],,8b,,
{16},,,,
,,,,
{24},7/3,,,,,
{16}6,5,6,,
{16}3q7[16:2],,4,,
2,,,,
2,,3v8[48:7]/7-4[16:2],,
4/8,,7b/3b,,
{48},,,,,,,1>4[48:5],,,,,
{16}4<7[16:2],,6,,
8z4[8:1]*s4[8:1],,,,
,,,,
(159)
{48}1-6[8:1]*-4[8:1],,,,,,,6,,,,,
{16}1,,,,
7/3,,2v5[16:2]/6v1[16:2],,
4/8,,2bpp5[48:31]/6bpp1[48:31],,
{16},,,,
,,,,
,,,,
,,,,
(160)
{16},7b,,,
2b/5,,,8b/3,
,,2,,
7,5,6,4,
{16}5,2b,,,
7b/4,,,1b/6,
,,7,,
2,4,3,5,
{16}4,7b,,,
2b/5,,,8b/3,
,,2,,
7,5,6,4,
{16}5,2>4[16:2],,,
4,,,1-5[16:2],
,,6,,
,,,,
{16},2b,,,
8b/6,,,3b/1,
,,7,,
2,5,3,6,
{16}4,7b,,,
1b/3,,,8b/6,
,,2,,
7,4,6,3,
{16}5,2b,,,
8b/6,,,1b/3,
,,7,,
2,5,3,6,
(161.6)
{16}4,7<5[16:2],,,
5,,,8-4[16:2],
,,3,,
,,,,
(160)
{16},7b,,,
2b/4,,,6b/8,
,,2,,
7,1,5,3,
{16}8,2b,,,
7b/5,,,3b/1,
,,7,,
2,8,4,6,
{16}1,7b,,,
2b/4,,,6b/8,
,,2,,
7,1,4,6,
{16}8,2-6[16:2],,,
4,,,1-5[16:2],
,,7,,
,,,,
{16},3b,,,
4b/8,,,2b/6,
,,7,,
2,8,5,6,
{16}3,4b,,,
2b/6,,,8b/4,
,,2,,
7,1,4,3,
{16}6,5b,,,
7b/3,,,1b/5,
,,7,,
2,8,5,6,
{16}3,4<6[16:1],,,
6,,,7-3[16:1],
,,3,,
,2<8[16:1],,,
{16}5/2,,,7-3[16:1],
{48},,,,,,3qq2[24:5]/7qq6[24:5],
