&title=林檎と柘榴
&artist=栗山夕璃
&first=0.025
&des_5=YYlY
&lv_5=13+
&des=YYlY
&clock_count=4
&inote_5=(164)
{1},,
{1},
{8}Ch[1:1]/7h[1:2],,,,,,,,,,,,,,,,3h[4:4],,,,,,,,4-8[8:1]b,,2h[4:1],,7,3/6,5b/4b,,
{8}3b-8[8:1]b,,4-6-3-7[8:3],,1h[4:1],,,,2b-6[8:1]b,,8-4-7-5[8:3],,3h[4:1],,,,1b-5[8:1]b,,7-1-6-4[8:3],,2h[4:1],,,,2,3/5,4/6h[4:1],,5,3h[4:1],,4,
6b-1[8:1]b,,5-3-6-2[8:3],,8h[4:1],,,,7b-3[8:1]b,,1-5-2-4[8:3],,6h[4:1],,,,8b-4[8:1]b,,2-8-3-5[8:3],,7h[4:1],,,,7,6/4,5/3h[4:1],,4,3,5,4,
{8}6<3[4:2],,,,5h[4:6],,,,,,,,E3,E4,C,E6,7x<2[4:2],,,,1h[4:4],,,,,,,,8-5[8:1],,1,2,
3>6[4:2],,,4,4h[4:6],,,,,,,,E7,E6,C,E4,2x>7[4:2],,,,8h[8:5],,,,,2,2h[4:1],,
{16}4-1[8:1],,,,5,,,,
{16}7/8,,,,6,,5>2[4:1],,,,,,8,,,,6h[8:3],,,,,,3V52[4:1],,4,,5,,6,,6,,
7/1,,,,6,,5>2[4:1],,,,,,1,,,,7h[8:3],,,,,,,,5-8[8:1],,,,3,,3,,
2/1,,,,3,,4<7[4:1],,,,,,1,,,,3h[8:3],,,,,,6V47[4:1],,5,,4,,3,,3,,
2/8,,,,3,,4<7[4:1],,,,,,8,,,,2,,7,,7h[4:1],,,,5-1[8:1]b,,,,,,,,
{4}7bqq4<3[4:13],,,,,,,,2h[4:8],,,,,,,,
{4}Ch[4:3],1,2,3,4h[4:3],E8,E7,E6,
{16}2/4,,,5/3,,,6/4,,,7h[16:19]/5qq2[8:5],,,,,,,,,,,,,,,,,,,E1,,,,
{8}4>8[4:1]/5,,,7h[4:2],,,,
{16}6,5,4-8[8:1],,,,6,,,,
{12}2,4,3,7,5,6,
{8}4,3h[4:2],,2,4,6h[8:3],,7,5-1[8:1],,,,8,7h[8:2],
{32}5x,4x,3x,2x,1x,,,,
{16}7<4[8:1],,,8,7,,2-6[8:1]*-5[8:1],,,,2,,,,7,,8-4[8:1],,,1,8,,3qq4[4:1]b,,,,3/5,,,,6pp4[4:1],,,,5,,4,,3,,2-6[8:1],,,,8,,8h[8:2],,
{16}5,4,3,2,7,6,5,4,
{16}1bh[4:1],,,,8,1,8,1,
{16}7<4[8:1],,,3,7,,2,,1-5[8:1],,,,1/8,,,,
{16}7,6,5,4,3,2,1,8,
{4}7-4[8:1]/3-8[8:1]b,3/7,
{16}2h[16:3],,,4,3,,2/5,,6h[16:3],,,5,7,,8/4,,3<6[8:1],,,,3/7b-4[8:1],,,,2b-6[8:1]/7,,,,2/1b,,,,
{16}8<5pp4[4:2]b,,,,,,,,2h[4:2],,,,,,,,
3,2,4,3,5,4,6,5,7-3[8:1],,8,,7b,,,,
{8}2b,4-8[8:1],,7b,5-7[8:1]b,,1b,,2b,4-2[8:1],,7b,5-1[8:1]b,,2bv3-5[4:1],,
||s2/4
{4},,
||s4/4
{1}8xb>7[8:5]b*<1[8:5]b,
{12},,,3q6[8:3],,,,,,,,,
{8}7x/1x,,
{12}6,5,4,
{8}3,,8x/2xh[12:13],,
{6}E1,E3,E8,E4,E7,E5,
{4}6xh[4:3]/3x-1-4-8[4:2],,,,7xqq8[4:2]/1xh[4:2],,,2x,1x<3[4:2]/3xh[4:2],,,,
{12}1xh[4:1],,,8,7,6,2,3,4,7,6,5,
{12}2xh[6:1],,4,3,,5,4>6[8:3],,,8xh[4:3],,,
{12},,,D6,D5,D4,B3,C,B5,E4,E3,D2,
7xh[6:1],,5,6,,4,5<3[8:3],,,1xh[4:3],,,
,,,D4,D5,D6,D7,E8,E1,C/2x,,,
2x,4,3,7,5,6,3,5,4,6x,4,5,3h[4:1],,,
{12}E4,E5,E6,E3,E2,E1,7xh[4:1],,
{12},6,5,4,8,7,6,2,1,8,4,3,2,
{4}5x<3[4:2],,4xh[4:2],,,,,,
{1}2bp2[4:13]b/6bq6[4:13]b,,,,
{4}1-5[4:3]b,,,,1-5[4:3],,,,1h[4:6],,,,
{16},,,,4,5,6,7,8,1,2,3,4,5,6,7,4/8bz4s8[8:12]b,,,,,,,,,,,,,,,,
{4}3xh[4:2],,,,2pp5[4:6]b/6pp1[4:6],,,,,,,,3h[4:6],,,,6-4[8:1],,2-6[8:1]b,,
{8}7qq8[8:3]/1,,,2h[4:2],,,,
{16}3,4,5-1[8:1],,,,3,,,,
{12}7,5,6,2,4,3,
{8}5,7V51[4:1],,8,4,2h[8:3],,1,4-8[8:1]*-7[8:1],,4b,,1,3h[8:2],
{64}A8/D1/E1,D8,A7,D7,A6,D6,A5,D5,A4,,,,,,,,
{16}2-6[8:1],,,6,2,,8,,7h[4:1],,8,,5h[4:1],,8,,7<4[8:1],,,3,7,,1,,2h[4:1],,1,,4h[8:3],,2pp3>8[4:1],,,,2,,5,,6,,7-3[8:1],,,,8,,8h[4:1],,
{16}4,5,6,7,1,2,3,4,8bh[4:1],,,,1,8,1,8,
2>5[8:1],,,5,2,,6,,7-3[8:1],,8,,7/1h[4:1],,,,4,5,6,7,8/1,2,3,4,5-1[8:1]/6,,,,8b,,,,
{16}7h[16:3],,,5,6,,7/4,,3h[16:3],,,4,3,,2/6,,1b/8b,,,,2b,4,3,4,2b,5,4,5,2b,6,5,6,
{4}7xh[4:4]/4bqq1[4:2]b,,,,
{16}8,7,2,5,1,6,3,4,2-6[8:1]b,,1,,8b/2b,,,,
{16}7/4,,3,4,2,,1/8,,7,5,6,,4/5,,3,4,3,,2/5,,7,8,6,,1/5,,2,4,3,,4/5,,6,5,7,,1/8,,2,4,3,,2/5,,6,5,7,,
||s3/4
{4}1/8-4[8:1],3qq8[4:2],5,
{8}7h[4:3],,,,6<3[8:3]b,,,,
{8},5,4,6h[4:1],5,4,3h[4:1]/7h[4:1],,,8qq1[8:3],8,,3,3h[8:3],,4,4-7[8:1],,2-5[8:1],,8,,
{16}4/7,,6,6,5,,4/7,,3,3,4,,2/5,,6,6,5,,4/7,,3,,2,,
{4}1-5[8:1]/8,6pp1[4:2],3,2h[4:3],,3-7[8:1],1-4[8:1],5-8[8:1],3h[4:1],
{8}7,2/6,1h[4:1]/5<8[8:1],,,2,3<6[8:1],,6,7-4[8:1],,8,1-5[8:1],,5,6h[4:1],,4,
||s4/4
{8}2h[4:1],5,5,3h[4:1],1,1,2h[4:1],5,5,3h[4:1],8,8,7h[4:1],4,4,6h[4:1],1,1,7h[4:1],4,4,6h[4:1],8,8,
{8}1-6[8:1],2,3,4-8[8:1],3,2,1-5[8:1],2,3,4-8[8:1],3,2,
1-4[8:1]b,8,7,6-2[8:1]b,7,8,1-5[8:1]b,8,7,6-2[8:1]b,7,8,
1V72-5[8:3]b,1-6-3[4:1],,,,,,,
E
