&title=HeaveИ’s Rain
&artist=モリモリあつし
&first=0.04
&des=Nephele
&lv_5=14+
&inote_5=(285){1},,
{8},,,,,,{16}E4,B4,B5,E6,
{4}8,8h[4:2],,2,
2h[4:2],,4,4h[4:2],
,6,6h[4:2],,
7-5[4:1],E8,,4-2[4:1],
E5,,8-6[4:1],E1,
,3-1[4:1],E4,,
{8}8b,,,7,7,,{16}5,4,3,2,
1b,,,,{8}8h[4:3],,1,,2,,
3,,4bh[4:3],,7,,7,,
6b,,5,6,4,5,3,4,
2,1,3x,,{16}12,8,7,6,5,4,1,8,
7,6,5,4,{4}3/8bqq8[4:2],,,
{8}2,2,,4,,3,3,5,
,47,,6,6,5,,34,
,2,2,1,,38,,7,
7,4,,56,,4,4,5,
,36,,2,4,3,,45,
,27,{16},,1,8,1,8,1,8,1,8,1,,
{8}2bh[2:1],,B7,,B6,,3,5,
4,,4h[4:1],,7h[2:1],,B3,,
B2,,1,8,2,,2h[4:1],,
5,3,6,,6h[4:1],,1,6,
1,,2h[4:1],,4h[4:1],,3,,
25,,7h[4:1],,8,,16,,
{8}3bh[2:1],,B6,,B7,,2,8,
1h[2:1],,8,,6h[2:1],,B2,,
B3,,4,5,3h[2:1],,4,,
8,2,7,,7h[4:1],,5,6,
4,,3h[4:1],,1h[4:1],,2,,
38,,6h[4:1],,5,,47,,
2,1,2,1,3h[4:1],,7,8,
7,8,6h[4:1],,3,4,3,4,
2h[4:1],,6,5,6,5,7h[4:1],,
{16}2,,1,,2,,1,,2x,3,4,,
7,,8,,7,,8,,7x,6,5,,
3,,4,,3,,4,,3x,2,1,,
5x,6,7,,2x,3,4,,8x,7,6,,
{16}1-5b[4:1],,1,,,,6,,,,6,,3,4,3,4,
2h[2:1],,,,,,,,8-4b[4:1],,8,,,,3,,,,3,,6,5,6,5,
7h[2:1],,,,,,,,
2,,5,,2,,5,,3,4,3,,7,,4,,7,,4,,6,5,6,,4,5,4,5,4,5,4,5,4,5,4,5,4,5,4,5,4b,,,,,,,,
{256}1bs5[4:21]*s5[4:21],8bV63s7>3[4:21],,,,,,,,,,,,,,,,,,,,,,,,,,,,,,,,,,,,,,,,,,,,,,,,,,,,,,,,,,,,,,,,,,,,,,,,,,,,,,,,,,,,,,,,,,,,,,,,,,,,,,,,,,,,,,,,,,,,,,,,,,,,,,
{2},,,,,,,,,,,
{8}2qq7[4:4]/4,,,4,,,5,,
,6,,,6pp1[4:4]/8,,,1,
,,2,,,3,,,
4>1[4:1],,5,,6,,7<4[4:1],,8,,1,,2,3,2,1,3,8,4bw8b[4:1],,,,,,
{12}2bx,3,4,2bx,3,4,2bx,3,4,7bx,6,5,
7bx,6,5,7bx,6,5,{16}1hb[2:1],,,,4,,,,
7,,5,,1bh[4:1],,,,3,,,,1,,,,
25,,,,4,,3,,5,,4,,6b-2[4:1],,,,
5,,,,4,,,,3>8[4:1],,,,8,,,,
7,6,5,4,7,6,5,4,8bh[2:1],,,,C,,,,
{12}3bx,4,5,3bx,4,5,3bx,4,5,7bx,6,5,
7bx,6,5,7bx,6,5,{16}1bh[4:1],,,,5,,2,,
6,,3,,7h[4:1],,,,8h[4:1],,,,1h[4:1],,,,
3,,3h[16:4],,4x,5,6,7,8,1,2,3,4h[4:1],,,,
3x,2,1,8,7,6,5,4,2/3h[4:1],,,,1x,8,7,6,
5,4,3,2,1bx/7bx,,,,3b/5b,,,,5b/7b,,,,
{12}2xb,3,4,2xb,3,4,1xb,2,3,7xb,6,5,
7xb,6,5,8xb,7,6,{16}4hb[2:1],,,,7,,,,
6,,2,,4h[4:1],,,,3,,3,,4,,,,
56,,,,7,,7,,1,,8,,2,,,,
38,,,,2x,1,2,1,2,1,2x,1,2,1,2,,
3x,,4x,,2^7[4:1],,,,7,,,,6,,,,
{16}4x-8[4:1]/5x,,4x/5x,,,,,,,,,,1x/6x-2[4:1],,1x/6x,,
,,,,,,,,3x-8[4:1]/1x,,3x/1x,,,,,,
,,,,6/7-4[4:1],,67,,,,,,,,,,
2,,2,,4,,3,,5,,4,,7,,7,,
5,,6,,4,,5,,3,,4,,1,,6,,
4,,8,,2,,5,,{12}1,7,1,7,1,7,
{4}8^3s7^5s1[4:27],C,,,,,E2,E8,,,,,E4,E6,,,,,E8,E7,,,,,E2,E3,,,,,B7,B3,,,,,E6,E2,,,,,E8,E4,,,,,
{16}24,,,,24,,,,45,,,,3,,6,,
2,,7,,1,,,,28,,,,28,,,,
46,,,,3,,5,,2,,6,,1,,,,
8,,7,,8,,7,,1,,6,,2,,5,,
3,,4,,3,,4,,2,,1,,3,,8,,
4,,7,,5,6,5,6,5,6,5,6,5,,,,
3,,3h[4:1],,,,2h[4:1],,,,1,,1pp1[4:2],,,,
8,,,,8,,,,6,,6h[4:1],,,,7h[4:1],,
,,8,,8qq8[4:2],,,,1,,,,1,,,,
3,,3,,1,,1,,7,,7,,5,,5,,
2,,2,,8,,8,,4b-2-6-8[4:3],,,,,,,,
5,,5,,5b,,,,,,,,,,,,
24,,,,,,3,,3,,3,,3,,,,
,,6,,6,,6,,6,,,,,,1,,
1,,1,,1,,,,27,,,,36,,,,
{12}4,5,4,5,4,5,3,6,
3,6,3,6,2,7,2,7,2,
7,{16}1b,8,1,8,1,8,1,8,1,8,1,8,1bs5[4:1],,,,,,,,,,,,
8^5[4:1],,,,4,,,,4,,,,3^8[4:1],,,,
4,,,,4,,,,A7,D7,A6,D6,A5h[4:1],,,,
2,,4,,1xhb[2:1],,,,,,,,8,,,,
8x,17,26,35,4w8[4:3]*w8[4:3],,,,,,,,,,,,
,,,,,,,,Cf,,,,,,,,
{16},,,,1,8,1,8,1,8,1,8,1b,,,,
{12}3b,4,5,2b,3,4,1b,2,3,6b,5,4,
7b,6,5,8b,7,6,{16}2bh[4:1],,,,4,,4,,
3,,5,,4b-8[8:1],,,,6b-2[8:1],,,,1b,,,,
3,,3,,5x,6,7,8,1,2,3,4,5h[8:1]/1,,,,
8x,7,6,5,4,3,2,1,8h[8:1]/7,,,,6x,5,4,3,
2,1,8,7,6/2b,,,,8b/4b,,,,2b/5b,,,,
{16}3,4,3,4,3,4,3,4,3,4,3,4,2,5,2,5,
2,5,2,5,2,5,2,5,1bh[4:1],,,,8,,8,,
1,,7,,8,,8,,6,,1,,1,,8,,
2,,1,,2b,3,4,5,1b,8,7,6,2b,1,8,7,
6,5,4,3,7x,8,1,2,3,4,5,6,2x,1,8,7,
6,57,48,31,2bw6b[4:1],,,,,,,,,,,,
3x>8[4:2],,3x,,,,,,,,,,7x^4[4:2],,7x,,
,,,,,,,,2x-6[4:1],,2x,,,,,,
,,,,8x-4[4:1],,8x,,,,,,,,,,
2,,2,,4,,3,,5,,4,,7,,7,,
5,,6,,4,,5,,3,,4,,2h[4:1],,,,
8h[4:1],,,,Chf[4:6],,,,,,,,,,,,
,,,,,,,,,,,,,,,,
,,,,,,,,{12}1,2,3,4,58,7,6,5,4,
{16}2,,2h[4:1],,,,1h[4:1],,,,8,,
8-4[8:1],,,,7,,,,1,,,,7,,7h[4:1],,
,,8h[4:1],,,,1,,1-5[8:1],,,,2,,,,
8,,,,3,,3-7[4:1],,,,7-3[4:1],,,,8,,
8<5[8:1],,,,4x-8[8:1],,,,4,,,,6x,,6-2[4:1],,
,,2-6[4:1],,,,1,,1>4[8:1],,,,5x-1[8:1],,,,
5,,,,2b>5[8:1],,,,2,,8,,8-5[8:1],,,,
8x-3[8:1],,,,8x,,6,,6,,,,27,,,,
1,,8,,2,,1,,3-7[8:1],,,,4,,,,
5,,,,6b<1[8:1],,,,6,,4,,4-1[8:1],,,,
4x-7[8:1],,,,4x,,2,,2,,,,63,,,,
5,,4,,6,,5,,7-3[8:1],,,,8,,,,
1,,,,{4}3bq5[4:8]/7bq1[4:8],,,,,,,,,,,,27,{16}3,6,3,6,3,6,3,6,4,5,4,5,4,5,4,5,4,5,4,5,36,,27,,18,,,,27,,36,,1b/8b,,
