&title=Gyaku_
&artist=Essbee
&first=0.027
&des=美しく透明なアオは
&lv_5=14+
&des_5=美しく透明なアオは
&inote_5=(182)
{16},,,,
,,,,
,,,,
,,,,
{16},,,,
,,,,
,,,,
,,,,
{16}2>4q8[4:29]`1q5<7[4:29],,,,
,,,,
,,,,
,,,,
{16},,,,
,,,,
,,,,
,,,,
{16},,,,
,,,,
,,,,
,,,,
{16},,,,
,,,,
,,,,
,,,,
{16},,,,
,,,,
,,,,
,,,,
{16},,,,
,,,,
,,,,
,,,,
{16},,,,
,,,,
,,,,
,,,,
{16},,,,
,,,,
,,,,
,,1,8,
{16}7b/2b>6[4:3],,,,
,,,,
,,,,
,,,,
{16}8<3[4:3],,,,
,,,,
,,,,
,,,,
{16}1h[2:1],,,,
,,,,
7h[2:1],,,,
,,,,
{16}5p4[4:3],,,,
,,,,
,,,,
,,,,
{16}5p4[4:3],,,,
,,,,
,,,,
,,,,
{16}5>1[8:5]*<1[8:5],,,,
,,,,
,,,,
,,,,
{16}B1h[1:1],,,,
,,,,
B5h[2:1],,,,
,,,,
{16}C,,,,
,,,,
,,,,
8,,,,
{16}7b/5b,,,,
3,,5/6h[4:1],,
,,5,,
6,,5,,
{16}8,,3,,
4,,5/2h[4:1],,
,,4,,
3,,4,,
{16}1,,6,,
5,,4/7h[4:1],,
,,5,,
6,,5,,
{16}7,,1,,
8,,7/2,,
,,4,,
6/5h[4:1],,,,
{16}4,,3,,
4,,5/1h[4:1],,
,,3,,
5,,7h[8:1],,
{16}5,,6,,
5,,4/8h[4:1],,
,,6,,
4,,2h[8:1],,
{16}4,,3,,
4,,5/1>4[8:1],,
,,1/8<5[8:1],,
,,5/8,,
{16},,3,4,
2,,8,,
3bx/7bx,4xh[16:3]/6xh[16:3],,,
,,,,
{16}5b/2b,,,,
3,,6/5>2[8:1],,
,,5,,
6,,4,,
{16}1h[8:1],,4-6[8:1],3,
5,,2h[4:1],,
,,7,,
4,,8,,
{16}5h[8:1],,6>3[8:1],4,
7,,2h[4:1],,
,,4,,
1,,7,,
{16}5h[8:1],,6,3,
4,,2/5,,
,,4,,
6/5h[4:1],,,,
{16}4b<7[8:1],,3,,
4,,1h[4:1],,
,,8,,
2,,6,,
{16}4h[8:1],,6-4[8:1],5,
7,,2h[4:1],,
,,3,,
1,,7,,
{16}5h[8:1],,6<1[8:1],4,
7,,2>5[8:1],,
,,2/8,,
6,,,,
{16}7/1,,2,4,
3,,8,,
{24}5x,6x,7x,8x,1x,2x,
5x,4x,3x,2x,1x,8x,
{16}3bx/7bxh[4:1],,,,
E2,B2,B3,E4,
6,,6h[8:1],,
5h[8:1],,7,4,
{16}6h[8:1],,5h[8:1],,
7,,6/1h[4:1],,
,,5,,
4/7h[4:1],,,,
{16}5,6,3h[8:1],,
E7,B6,B5,E5,
2,,2h[8:1],,
1h[8:1],,3,8,
{16}2h[8:1],,1h[8:1],,
3,,5/2h[4:1],,
,,6,,
3/8-4[8:1],,2,,
{16}8/1,,,,
E2,B2,B3,E4,
6,,6h[8:1],,
8h[8:1],,4,2,
{16}6h[8:1],,8h[8:1],,
7,,6/1h[4:1],,
,,5,,
4/7h[4:1],,,,
{16}5,6,3h[8:1],,
E7,B6,B5,E5,
2,,2h[8:1],,
4h[8:1],,1,7,
{16}2h[8:1],,4h[8:1],,
3,,5,,
3,4,2,5,
1,6,8,7,
{16}Cf,,,,
D2,D3,D4,D5,
7,,7h[8:1],,
4h[8:1],,8,2,
{16}7,,7h[8:1],,
4h[8:1],,8>3[8:1],,
,,7,,
5h[4:1],,,,
{16}4,6,2h[8:1],,
D1,D8,D7,D6,
3,,3h[8:1],,
7h[8:1],,4,6,
{16}3,,3h[8:1],,
7h[8:1],,1<6[8:1],,
,,2,,
4-8[8:1],,3,,
{16}4/5,,,,
D2,D3,D4,D5,
7,,7h[8:1],,
3h[8:1],,8,2,
{16}7,,7h[8:1],,
3h[8:1],,8>3[8:1],,
,,7,,
5-1[8:1],,,,
{16}4/5,,4,,
D1,D8,D7,D6,
2,,2h[8:1],,
4-8[8:1],,5,,
{16}4/3,,2,,
1/7p2[16:3],,,,
E1hf[2:1],,,,
,,,,
{16}4b<6[8:5],,,,
,,,,
,,,,
,,,,
{16}3<6[4:3],,,,
,,,,
,,,,
,,,,
{16}1>8[8:7],,,,
,,,,
,,,,
,,,,
{16}3h[2:1],,,,
,,,,
7h[2:1],,,,
,,,,
{16}5p3[4:3],,,,
,,,,
,,,,
,,,,
{16}6pp2[4:3],,,,
,,,,
,,,,
,,,,
{16}1pp8[16:17],,,,
,,,,
5v6-4[16:9],,,,
,,,,
{16},,,,
,,,,
1,,5,,
2,,6,,
{16}3b>6b[4:3],,,,
,,,,
,,,,
,,,,
{16}5h[2:1],,,,
,,,,
1h[2:1],,,,
,,,,
{16}4qq3<7[8:9],,,,
,,,,
,,,,
,,,,
{16}1h[8:5],,,,
,,,,
,,,,
,,,,
{16}5>3[2:1]/6p2[2:1],,,,
,,,,
,,,,
,,,,
{16}5qq4[8:5]/1>7[4:5],,,,
,,,,
,,,,
,,,,
{16}E1h[8:7],,,,
,,,,
,,,,
,,7h[8:9],,
{16},,,,
,,,,
,,,,
,,,,
{24}8bx<5b[8:1],1x,2x,3x,,,
{16}8,,,,
8/6-8[8:1],,,1,
,,3,,
{16}1/5-3[8:1],,,8,
,,6,,
4/1<3b[4:1],,2,5,
1,,,,
{24}1bxV35b[16:3],8x,7x,6x,,,
{16}1,,,,
7,,7h[8:1],,
5,6,3,4,
{32}1bh[8:1],,,,5x,6x,7x,,
2bh[8:1],,,,6x,7x,8x,,
{16}3b<6[8:1],,2,4,
3,,,,
{24}1bx>4b[8:1],8x,7x,6x,,,
{16}1,,,,
8,,8h[8:1],,
3,7,4,6,
{16}1,,1h[8:1],,
7,3,6,4,
8bh,,,,
,,,,
{24}1bx-6-8b[32:7],2x,3x,4x,,,
{16}1,,,,
3,,3h[8:1],,
8,2,7,1,
{32}6bh[8:1],,,,2x,3x,4x,,
7bh[8:1],,,,3x,4x,5x,,
{16}8b,,7,4,
6pp5b[16:7],3,5,2,
{16}6b,,,,
,,,,
2>5b[8:1],,6,,
{24}D3,D4,D5,,,,
{16}1<6b[8:1],,5,,
{24}D1,D8,D7,,,,
{16}2-6b[8:1],,3,4,
2,,,,
{24}1bxV35b[16:3],8x,7x,6x,,,
{16}1,,,,
8,,8,,
5x,4x,3x,2x,
{16}7x/1x,,6,5,
7,,3,4,
2,1,3,8,
4,7,5,6,
{16}1bh[8:3],,,,
4,,4,,
5/3,,5/3,,
6/2,,6/2,,
{16}1,7,8,7,
6,7,5,7,
4,6,3,5,
2-6[8:1],4,8,6qq7b[16:19],
{16}2bqq3[8:9],,,,
,,,,
,,,,
,,,,
{16},,,,
,,,,
,,,,
7-1[8:1]/2-5[8:1],,,,
{16}2b/7b,,,,
4xh[8:1],,8,5,
6<1[8:1],,1,,
3x,,5-3[8:1],,
{16}8,,8,,
6xh[8:1],,1,4,
3-7[8:1],,8,,
6x,,4<7[8:1],,
{16}8,,8,,
2x,,8qq1[4:1],5,
6,,1>6[4:1],,
2x,,3,,
{16},,E2,,
E3,,E4,,
7x,,6/5,,
7xv4[8:1]*p3[8:1],,5/6,,
{16}7b,,,,
2xh[8:1],,4,3,
6-4[8:1],,4,,
2x,,8>5[4:1],,
{16}5,,5qq5[16:5],,
7x,,,,
6,,6,,
8xh[8:1],,5,6,
{16}3q7[8:1],,4,,
6x,,8h[4:1],,
,,1>7b[4:1],,
2x,,3,,
{16},,E2,,
E3,,E4,,
7x,,6/5,,
7x,5,6,2,
{16}8bpp5b[2:1],,,,
,,,,
,,,,
,,1b/D6f/A6/A5,,
{16},,7b/D4f/A4/A3,,
,,5b/D1f/A8/A1,,
,,3h[8:1],,
{32}7,8,1,2,3,4,5,6,
{16}7/Cf,,,,
2x/1x,,8-5[8:1],,
,,5x/8x,,
4<1[24:7],,,,
{16}E2,,E3,,
E4,,E5,,
8h[8:1],,5,6,
2x<6[16:3],,4/3,,
{16}2b,,,,
5x,,4-7[8:1],,
,,2,,
3x,,8,5,
{16}6,,3<6[8:1],4,
1x,,3/7h[4:1],,
,,8,,
2xh[8:1],,1,3,
{16}7,,4<7[8:1],6,
2x,,3/4>1[8:1],,
,,4,,
6x,,6,,
{24}3,4,5,6,7,8,
{16}1xV74b[16:5]`5xV38[16:5],,7x/3x,,
,,,,
,,,,
{16}2b,4,3,,
7,5,6,,
2-8[8:1],1,3,,
5,,7,,
{16}2,1,3,,
7,8,6,,
2-5[8:1],4,3,,
1,,7,,
{16}4,5,2,,
5,4,7,,
2x>5[8:1],,1x<6[8:1],,
2x,,1x,,
{16}3-5[8:1],2,1,,
7,8,1,,
4-6[8:1],,3,,
7-3[8:1],,8,,
{16}Cf,,,,
2,4,3,,
6,5,7-3[8:1],,
1,,7,,
{16}2,,4,,
7,5,6,,
3-5[8:1],4,2,,
8,,6,,
{16}4,5,2,,
5,4,7,,
1x>4[8:1],,8x<5[8:1],,
1x,,8x,,
{16}3-6[8:1],2,1,,
5,,7,,
8h[2:1],,,,
,,E5,E4,
{16}E3f,,,,
6,,1x<6[8:1],,
7,,1x>4[8:1],,
5,,1x,,
{16}6,7,8-4[8:1],,
3,,8x/2,,
1-5[8:1],,6,,
1x/7,,8,,
{16}3,4,1,,
6,5,8,,
2x-5[8:1],,1x-6[8:1],,
2x,,1x,,
{16}3-5[8:1],2,1,,
7,8,1,,
4-8[8:1],,3,,
7,,6,,
{16}1b/5b,,,,
2,5,4,6,
3,7,5,6,
2,,3/1,,
{16}6b/8b,,,,
1,6,3,8,
2,5,1,7,
4,,2/5,,
{24}4b/7b-3[8:1],5,6,7,8,1,
2,3,4,,,,
5b-1[8:1]/8b,7,6,5,4,3,
2,1,8,,,,
{16}6b/2b,,,,
,,,,
E6,,,,
E4,,,,
E
