&title=Traxxendenza
&artist=CS4W
&des=Bigwoof
&first=0.25
&lv_5=14+
&lv_7=奏
&des=
&inote_1=Ch[1:32],E
&inote_5=(175){4},,1-3-5-7-1[4:3]/8-2-4-6-8[16:11],,,,,8h[178#4:7],
(176){4}B2,(177){16},,E3,B3,(178){8}B4,,(179){4}B5,
(180){4}E7,(180.5){4}B8,(181){8}B1,C,(182){8}A2,B3,
(183){4}4h[185.5#4:7],(184){24},,,E5,B5,B6,(184.5){4}E7,(185.5){4}B8,
(186.5){8}8,,(187.5){8}7,,(188.5){8}6,,(189.5){8}5,,
(190.5){8}1,4,(191.5){8}2,5,(192.5){8}3,6,(193.5){8}4,7,
(194.5){8}8,4,(196){8}7,3,(197.5){8}6,2,(198){8}5,1,
(199.5){4}2h[198.5#4:1],(200){16}4,5,6,7,{4}8,1w5[8:1],
(187.6483){16}1bv6-4>3-8[202#8:5]b*s5>3-7[202#8:5],Cf/B3/B7,,,(167.8905){4},(175.2391){4},(189.8415){4},
(205){4}1bxh[4:1]/6bxh[4:2],(206){4},(207){8}8h[8:1],7h[8:1],(208){4}8h[4:1],
(209){4}7h[4:1],(210){4}6h[4:1],(211){4}5h[4:1],(212){4}4h[4:1],
(213){4}1xh[2:1],(214){4},(215){4}2h[4:1],(216){4}3h[4:1],
(217){4}4h[4:1],(218){4}5h[4:1],(219){4}6h[4:1],(220){4}7h[4:1],
8bx>5[2:1],,{8}5,6,7,8,
{4}1bx<4[2:1],,{8}4,3,2,1,
(210){4}8bh[4:1],(205){4},(180){4}2b/7b,(175){4}3b/5b,
4b/6b,(137.5){8}7b,8b,(105){4}1b/2bh[1:1],
(60){4}8bh[4:1],{32},,{48}B8,,B6,{32}E7,,B7,,
(210){2}E8/Ch[2:1],B3/B4f/B5/E4/E5/A3/A4/A5,
{16}B8,B1,B2,B3,B4,B5,B6,B7,{12}E8/B8,E1,E2,E3,E4,E5,{8}E6,E7,E8,E1,
(240){8}2-5[8:1],,2,7-4[8:1],,7,3-8[8:1],,3,7-5[8:1],,7b/1-3[8:1],,1b/8,7<4[8:1],
(240){8},7,3q8[8:1],,3,5-1[8:1],,2/5,,,4-2[8:1],,4b/1-5[8:1],,1b/6,,
(240){8}7-4[8:1],,7,2-5[8:1],,2,6-1[8:1],,6,2-4[8:1],,2b/8-6[8:1],,8b/1,2>5[8:1],
(240){8},2,6p1[8:1],,6,4-8[8:1],,7/4,,,5-7[8:1],,5b/8-4[8:1],,8b/3,,
(240){8}1bx/2bx,1/2,,7/8,7/8,,3/5,3/5,,4/6,,5/3-1[8:1],{16}4,4,{8}3,,
(240){16}8bh[8:1],,6,5,7h[8:1],,5,,3,4,2h[8:1],,7,,1,8,2h[8:1],,8,1,7h[8:1],,,,5/6,,4/5,,3/4,,,,
(240){24}8b,1,2,{8}3,4x/5,{24}8b,7,6,{8}5,3/4x,{24}2bx,1x,2x,{8}1x,{16}2x,3,{8}4/7,{16}2x,1,{8}8/5,{16}2x,3,4/8x,7,{8}6-3-7-4-8[14.57#49:3]/2-5-1-4-8[14.57#49:3]b,
(90){4}3bh[4:5]/5bh[4:5],,,,,,2bx/6bx,,
(240){8}1,1,7,{16}7,6,{8}5,2,2,8,
{24}8/1,2,3,{8}4,7,{24}7/8,1,2,{8}3,6h[8:1],{24}7,8,1,{8}2,
{8}5h[16:1],5h[16:1],
4h[16:1]/6h[16:1],4h[16:1]/6h[16:1],
3h[16:1]/7h[16:1],3h[16:1]/7h[16:1],
2h[16:1]/8h[16:1],2h[16:1]/8h[16:1],
{4}1x-6[8:1]*-7<6[8:1],1bx-4[8:1]b*-3<4[8:1]b,A1f/B1/D2/D1/E2/E1,,
5h[4:3]/4,3,2,1,
{16}8,5,1,6,2,7,3,8,{4}4z8[8:1]*s8[8:1],{16}4b,Cf/B2/B6,,,
{8}1x/7x,2x/6x,{4}3bx-7[8:1]b/5bx,3/6-1[8:1],2-4[8:1]/6,
{16}8/2-5[8:1],,,7,2-6[8:1],,8,,{4}1/2,7x,
{8}8/2,7/3,{4}6b-2[8:1]b/4b,6/3-8[8:1],7-5[8:1]/3,
{16}1/7-4[8:1],,,2,7-3[8:1],,1,,{4}8/7,{16}1x,2,3,4,
{8}5bx/7bx,5bx/7bx,{4}5bx/7bx-4[8:1]b,2-6[8:1]/7-1[8:1],2>4[8:1]/7,
{16}5/2-5[8:1],,,6,2-6[8:1],,7,,{4}2/8,{16}5x/7x,4,3,2,
{8}8h[2:1]/1,,1<6[8:1],,1b,,5/4,5/4,
4h[2:1]/5,,5>2[8:1],,5b,,1,,
{1}1h[4:2]/7h[4:3],
{16}B1,C,B5,A5,A8,E8,E7,A6,A2,E3,E4,A4,{4}Chf[4:1],
{16}8bx,1bx,2bx,3bx,4bx-7[8:1]b,,,5,{4}4-8[8:1],4/3,
{6}1h[12:1]/2h[12:1],8h[12:1]/3h[12:1],7h[12:1]/4h[12:1],{4}6h[12:1]/5h[12:1],{24}4>6[2:1]b*-2-8-6[2:1],5,4,5,4,5,
{8}4b,,,5,{4}5h[4:1],{16},,5,6,5x,7,5,8,5x,1,5,2,5x,3,5,4,{4}5bhx[4:1],
{8}3h[8:3],,,{16}6,4,{4}8bp3[8:1]*v5[8:1],8b,
{6}4hx[12:1]/6hx[12:1],4h[12:1]/7h[12:1],4h[12:1]/8h[12:1],
3hx[12:1]/8hx[12:1],2h[12:1]/8h[12:1],1h[12:1]/8h[12:1],
{1}1b-7-5-3-1<1[4:10]/8b-6-4-2-8<1[4:10],,
{4}B8,B7,B6,B5,
B4,E3,B1/E1/E2/7h[4:1],,
{16}8x,6,8,6,8,6,8,6,{4}8h[8:1],7b/1b,
{16}1x,3,1,3,1,3,1,3,{4}1h[4:1],2b/8b,
{16}1bx,4,3,4,3,4,8bx,5,4,5,4,5,2bx/6bx,3/7,4/8,1/5,
{1}2h[4:3]/6h[4:3],
{16}5b/1,4,3,2,1b/5,8,7,6,{8}5bx/1bx,3bx/7bx,Chf[4:1]/B6/B7/B2/B3,
{8},,,4/6,3/7,2/8,,{16}1,1,1,1,1,1,1,1,1,1,1,1,1,1,1,1,1,1,1,1,
1b,1,1,1,1b,1,1,1,1b,1,1,1,1b,1,1,1,
{8}1b,2b/8b,3b/7b,4b/6b,{4}5bw1[8:1]b,A5f/A4/A6/E5/E6/D5/D6,
{8}1x/8x,,1/8,{16}3,4,{8}2/5,,2/5,,
3/6,,3/6,,{16}5/4,,,5/4,5/4,,,3/6,
3/6,,8,1,{4}2/7,2/7,1/8,
{16}2,8,2,,7<3-1-7-5[2:1],1,7,,{2}Cf,
{32}E5,E4,E3,E2,E1,E8,E7,E6,B5,B4,B3,B2,B1,B8,B7,B6,{2}Ch[4:1]/B5,
{8}1-3[8:1],8-4[8:1],1b,8b,1-5[8:1],8-6[8:1],1b,8b,
{32}E2,E3,E4,E5,E6,E7,E8,E1,B1,B2,B3,B4,B5,B6,B7,B8,{2}Ch[4:1]/B1,
{8}3-1[8:1],4-8[8:1],3b,4b,3-7[8:1],4-6[8:1],3b,4b,
{8}3,{24}8x,7,6,{8}5/3,{16}8x,1,{4}2b-5[8:1]b/3h[4:1],2b,
{6}4h[12:1]/6h[12:1],5h[12:1]/7h[12:1],6h[12:1]/8h[12:1],
{8}7/1,{24}2x,3,4,{8}5/7,{8}2x,
{16}8,7,6/5,,8x,,1b,2,3/7b,6,5/2b,3,{24}4/8b,7,6,5/1b,2,3,
{2}4/Chf[2:1],{4}2-6[8:1],2bx,
{4}8bx,{24}1/8,2,3,{8}4,7,{24}8/7,1,2,{8}3,6,
{16}5h[12:1]/6h[12:1],,,4h[12:1]/7h[12:1],,,3h[12:1]/8h[12:1],,{4}2h[12:1]/1h[12:1],{16}1,8,7,6,
{4}2-4[8:1]/5b,1-5[8:1]/2b,1b/8-6[8:1],2/8b,
{6}1h[12:1]/4h[12:1],1h[12:1]/5h[12:1],1h[12:1]/6h[12:1],1h[12:1]/7h[12:1],1h[12:1]/8h[12:1],1h[12:1]/2h[12:1],
{1}1bhx[1:1]/3bx,
{16}2x,3,4,5,1x,2,3,4,8x,1,2,3,7x,8,1,2,
6x,7,8,1,5x,6,7,8,4x,5,6,7,3x,4,5,6,
{1}2bxh[4:3],
{4}3x,3,4,5,
{2}6,{4}B1,B1,
2x,3,4,5,
{8}6,,,{16}8,8,{8}8,,7,6,
{4}5x,4,3,2,
{8}1,,,2,2,3,4,,
8x,,7,6,{4}5,4,
{4}1x/3x,2x/8x,1x/7x,6x/8x,
{4}1bxh[4:1]/B8/B7f,{8}4h[16:1],2h[16:1],5h[16:1],3h[16:1],{4}4h[16:1],
{4}8bxh[4:1]/B1/B2f,{8}5h[16:1],7h[16:1],4h[16:1],6h[16:1],{4}5h[16:1],
{4}2bxh[4:1]/B8/B7f/E8,{8}5h[16:1],3h[16:1],6h[16:1],4h[16:1],{4}7h[16:1],
{4}7bxh[4:1]/B1/B2f/E2,{8}4h[16:1],6h[16:1],3h[16:1],5h[16:1],{4}2h[16:1],
{8}8h[16:1]/7h[16:1],8h[16:1]/6h[16:1],,2h[16:1]/1h[16:1],3h[16:1]/1h[16:1],,6h[16:1]/5h[16:1],7h[16:1]/5h[16:1],,4h[16:1]/3h[16:1],4h[16:1]/2h[16:1],,
{8}5xh[4:1],{32}1bx,8,7,6,{8},{32}1bx,2,3,4,
{1}C/B6/B7/B8/E7/E8,
5b>5[4:3]b*-3-1-7-5[4:3]b,
Chf[1:1],
{4},,,B2/B3/B6/B7/C,
{8}7/8,{32}8x,1,2,3,{8}4,{16}7,5,{8}6h[8:1],4,3/5,2/4,
{16}2x/4bh[8:1],,,1x,5bh[8:1],,1x,,{4}8x/6b,{24}8x,1,2,3,4,5,
{4}6h[4:1],{16},,8,7,{8}1/6,5/2,3/4,4/5,
{16}3b,5,4,7b,5,6,1b,5,{4}2h[4:1],{16}8bx,7,6,5,
{16}3,4,3,4,2,5,2,5,1,6,1,6,8,7,8,7,
8b-2[16:1],,,7b-3[16:1],,,6b-4[16:1],,6b,,,,1b,8,7,6,
{4}5/2>5[8:1],{24}1x/2x,8x,7x,{8}6x,2,1,8,7,
{16}5/6,,3,4,,6,5,,{8}4/5,3/4,2/3,1/2,
1/8,,1x-5[8:1],{16}2b,8,{8}1,7x,6x,4x,
{6}5bh[12:1]/3bh[12:1],6bh[12:1]/4bh[12:1],7bh[12:1]/5hb[12:1],8bh[12:1]/6bh[12:1],7bh[12:1]/1hb[12:1],2hb[12:1]/8bh[12:1],
{16}1/3,,,,2x,2,2,2,2x,2,2,2,2x,2,2,2,
{24}1/3,,,,,,1bx,8,7,2bx,3,4,8bx,7,6,1bx,2,3,7bx,6,5,8bx,1,2,
{16}3x,,,4x,3,,4x,,{8}3/4,2/5,1/6,7/8,
{16}1b,2,3,4,1b,2,3,4,1b/5,2/6,3/7,4/8,{24}1b-5[8:1]b,2,3,4,5,6,
{2}7bh[4:6]/1b,,,{4},B2/E2/E3/A2,
{1}Chf[1:1]/B6/E6/E7/A6,
{4},,,B2/B3/B6/B7/C,
{4}1>4[4:1],{16}1bx/4bx,5,6,7,8x,1,2,3,1bx/4x,2,3,4,6bx,5,6,5,7bx,4,7,4,8bx,3,8,3,1bx<5[4:1]b,2,1,2,
{4}1bx,{12}3,,3,6b,5b,7b,3b,4b,2b,
{6}1/5,8/4,7/3,{4}6w2[8:1],{32}A6,B6,C,B2,{8}A2f,
{1},Chf[2:1]/B2/B3/B6/B7,
{8}1b/7b,2b/6b,3b>7[16:1]/5b,,{16}8/3,7,6,5,{24}4x,3,2,1,8,7,
{8}3bx/6b,{24}3bx,2,1,{8}8,7bx,{32}7bx,8,1,2,{8}3/5,4/6,,
{6}/7x,1x/6,2/5x,{12}3b,4b,3b,4b,,,
{24}2bx,3,4,1bx,8,7,{8}6/5,6/5,{32}4bx,3,2,1,5bx,4,3,2,{8}8x,8x,
{6}8x/7,1/6x,2x/5,{32}1b,2,3,4,{8}5,{32}1b,8,7,6,{8}5,
{6}6bh[12:1]/4bh[12:1],7bh[12:1]/5bh[12:1],8bh[12:1]/6hb[12:1],1bh[12:1]/7bh[12:1],8bh[12:1]/2hb[12:1],3hb[12:1]/1bh[12:1],
{1}2-5-8-3-6-1-4-7[4:11]/4-7-2-5-8-3-6[4:11]b,,,,,
E
&inote_7=(175){4},,1x,,,,,,
(176){4}1x,(177){4}1,(178){4}1,(179){4}1,
(180){4}1x,(180.5){4}1,(181){4}1,(182){4}1,
(183){4}1x,(184){4}1,(184.5){4}1,(185.5){4}1,
(186.5){4}1x,(187.5){4}1,(188.5){4}1,(189.5){4}1,
(190.5){4}1x,(191.5){4}1,(192.5){4}1,(193.5){4}1,
(194.5){4}1x,(196){4}1,(197.5){4}1,(198){4}1,
(199.5){4}1x,(200){4}1,1,1,
(187.6483){4}1x,(167.8905){4}1,(175.2391){4}1,(189.8415){4}1,
(205){4}1x,(206){4}1,(207){4}1,(208){4}1,
(209){4}1x,(210){4}1,(211){4}1,(212){4}1,
(213){4}1x,(214){4}1,(215){4}1,(216){4}1,
(217){4}1x,(218){4}1,(219){4}1,(220){4}1,
1x,1,1,1,
1x,1,1,1,
(210){4}1x,(205){4}1,(180){4}1,(175){4}1,
1x,(137.5){8}1,1,(105){4}1,(60){4}1x,
1,(210){4}1,1,
1x,1,1,1,
1x,1,1,1,
(240){8}1x,,,,1,,,,1x,,,,1,,,
(240){8}1x,,,,1,,,,1x,,,,1,,,,
(240){8}1x,,,,1,,,,1x,,,,1,,,
(240){8}1x,,,,1,,,,1x,,,,1,,,,
(240){8}1x,,,,1,,,,1x,,,,1,,,
(240){8}1x,,,,1,,,,1x,,,,1,,,,
(240){8}1x,,,,1,,,,1x,,,,1,,,
(90){4}1x,1,1x,1,
1x,1,1x,1,
(240){4}1x,1,1,1,
1x,1,1,1,
1x,1,1,1,
1x,1,1,1,
1x,1,1,1,
1x,1,1,1,
1x,1,1,1,
1x,1,1,1,
1x,1,1,1,
1x,1,1,1,
1x,1,1,1,
1x,1,1,1,
1x,1,1,1,
1x,1,1,1,
1x,1,1,1,
1x,1,1,1,
1x,1,1,1,
1x,1,1,1,
1x,1,1,1,
1x,1,1,1,
1x,1,1,1,
1x,1,1,1,
1x,1,1,1,
1x,1,1,1,
1x,1,1,1,
1x,1,1,1,
1x,1,1,1,
1x,1,1,1,
1x,1,1,1,
1x,1,1,1,
1x,1,1,1,
1x,1,1,1,
1x,1,1,1,
1x,1,1,1,
1x,1,1,1,
1x,1,1,1,
1x,1,1,1,
1x,1,1,1,
1x,1,1,1,
1x,1,1,1,
1x,1,1,1,
1x,1,1,1,
1x,1,1,1,
1x,1,1,1,
1x,1,1,1,
1x,1,1,1,
1x,1,1,1,
1x,1,1,1,
1x,1,1,1,
1x,1,1,1,
1x,1,1,1,
1x,1,1,1,
1x,1,1,1,
1x,1,1,1,
1x,1,1,1,
1x,1,1,1,
1x,1,1,1,
1x,1,1,1,
1x,1,1,1,
1x,1,1,1,
1x,1,1,1,
1x,1,1,1,
1x,1,1,1,
1x,1,1,1,
1x,1,1,1,
1x,1,1,1,
1x,1,1,1,
1x,1,1,1,
1x,1,1,1,
1x,1,1,1,
1x,1,1,1,
1x,1,1,1,
1x,1,1,1,
1x,1,1,1,
1x,1,1,1,
1x,1,1,1,
1x,1,1,1,
1x,1,1,1,
1x,1,1,1,
1x,1,1,1,
1x,1,1,1,
1x,1,1,1,
1x,1,1,1,
1x,1,1,1,
1x,1,1,1,
1x,1,1,1,
1x,1,1,1,
1x,1,1,1,
1x,1,1,1,
1x,1,1,1,
1x,1,1,1,
1x,1,1,1,
1x,1,1,1,
1x,1,1,1,
1x,1,1,1,
1x,1,1,1,
1x,1,1,1,
1x,1,1,1,
1x,1,1,1,
1x,1,1,1,
1x,1,1,1,
1x,1,1,1,
1x,1,1,1,
1x,1,1,1,
1,1,1,1,
1,1,1,1,
1,
E
