&title=ouroVoros
&artist=Negentropy
&first=0
&des=龙走路
&clock_count=4
&lv_5=14
&des_5=龙走路
&inote_5=(185){1},,,,,
{16}
4/7-4-1-6-2[8:26],,,,4h[8:14]/7,,,,,,,,,,,,,,,,,,,,,,,,,,,,,,,,,,,,,,,,,,,,
4,,,,,,,,3,,,,,,,,
2>2^4[8:18]/8,,,,2/8h[8:14],,,,,,,,,,,,,,,,,,,,,,,,,,,,,,,,,,,,7,,,,,,,,
{12}6,5,6,2,4,3,7,8,6,1,5,,
{16}3/4-8[6:1],,,,,,2h[8:11],,,,,,,,,,,,,,,,,,,,,,,,,,
7/8-4[6:1],,,,,,6-1[6:1],,,,5,,,,,,
3,4,3,4,3,4,3,4,2,5,3,4,2,5,1,,
6h[16:4]/8,,,,,,6h[8:1]/2,,,,6h[4:1]/4,,,,,,
4/6,,3h[8:1]/5,,,,2h[8:1]/4,,,,2h[4:1]/8,,,,,,
1/7,,1/7,,2/6,,2/6,,3/5,,3/5,,4/6,,4/6,,
7,5,7,5,8,4,8,4,
{24}8,7,6,5,4,3,2,1,8,7,6,5,
{16}
4h[4:1]/2-7[8:1],,,,,,,,5,,4,,3/6h[4:1],,,,
5-1[8:1],,,,7,,,,8,,7,,6,1,6,,
2h[4:1]/5-8[8:1],,,,,,,,2,,1,,3h[4:1]/8,,,,
4-8[8:1],,,,2,,,,1,,2,,8b/3b-7[8:1],,,,
3b/5-8[8:1],,,,1,,,,2,,3,,4h[4:1]/8,,,,
1<6[8:1],,,,3,,3,,4,,2,,1-5[8:1]/5,,,,
1/7-2[8:1],,,,4,,,,3,,5,,2/6h[8:1],,,,
1b/7b,,1b/7b,,2/6,,3b-6[8:1]/5b,,,,
3b/7b,,,,8b-4[8:1],,,,,,3x,,,,
2bV48[4:1]/6b,,,,2,,5,,7,,1,,
2,6,3,4,2,6,5,7,1x-5[8:1],,,,
1b/8,,,,7,,6,,5,,3,,2h[4:1]/4,,,,
5-7[8:1],,5,,1-3[8:1],,1,,8,,8,,1b/7b-3[8:1],,,,
7b/4h[8:1],,,,4,,4,,3,,5,,2x/6h[4:1],,,,
1-3[8:1],,1,,7-5[8:1],,7,,4-8[8:1],,4,,6,,6,,
1b-5[8:1]/7b,,,,1/8,,,,
7h[16:1],,6h[16:1],,5h[16:1],,4,,
3,4,3,4,2,5,3,4,2,5,1,6,8,7,8,,
1b/6bh[16:6],,,,,,2b,,,,2b/5b,,3bh[16:6]/4b,,,,,,
1bh[16:6],,,,,,2b,,,3b/4b,,,5bh[16:6]/6b,,,,,,
7b,,6hb[24:1],,4b/5b,,,2b/3b,,,1bh[16:4]/8b,,,,
7b,8b,7bh[4:1],,,,8b,,1b/6b,,2b/5b,,3bh[16:6]/4b,,,,,,
4b-1[12:1],,,,2bh[4:1],,,,8b,1b,7b,,
2b/6b,,,3b/4b,,,5b/6b,,,7b/1b,,,
2b/6b,,2b/6b,,
3b-8[12:1]/4b,,,7b-4[12:1],,,1b-5[12:1],,,6b-1[12:1],,,4b,,4b,,
8bx/3bx,,3bx/5bx,,4b/6b,,6b/1b,,
2b,7b,5b,6b,3b,4b,2b,,
8h[1:1]`Cf,,,,,,,,E3,,,,,,,,2h[1:1],,,,,,,,E5,,,,,,,,
4h[1:1],,,,,,,,E3,,,,,,,,2>6[4:2],,,,,,,,C,,,,
7,,7,,7h[2:1],,,,5,,,,3h[2:1],,,,5,,,,4,,,,2q4[4:2],,,,,,,,,,,,
6bh[1:1],,,,,,,,,,,,,,,,2h[2:1],,,,,,,,4h[2:1],,,,,,,,
8b>8b[8:12]*<8b[8:12],,,,,,,,,,,,,,,,,,,,,,,,,,,,,,,,
Ch[8:12],,,,,,,,,,,,,,,,,,,,,,,,,,,,,,,,
1,5,3,7,4,6,2,8,5,6,3,4,2,6,
5^6^7^8^1^2^3^4^5^6^7^8[384:720]*<5<8b[384:718],7,
4,,,,,,,,,,,,,,,,,,,,,,,,,,,,,,,,Cf,,,,,,,,,,,,
2,8,3,7,5b-8[8:1],,,,4/5,,,,
2,1,3,8,4,7,5,6,1-5[8:1],,,,7,,7,,
4/8,3,2,1,8/4b>1[8:1],,5,,4/6,,7,,8,,
1,7,4,5,3,,2/6,,1/7,,8-3[12:1],,,6-1[12:1],,,4-7[12:1],,,2h[16:3],,,
1,,3/8,,7,6,5,4,8,1,2,3,5,6,7,8,2,3,4,5,
7,8,6,8,7,1,4,4,3,5,3,4,2,2,3,,1,,
7,8,5,4,6,5,7,3,4,2,6,6,3,3,8,1,7,2,6,3,5,4,
6,5,7,4,8,3,1,2,4b-1[8:1],,,,4/5,,,,
7,8,6,1,5,2,4,3,8-4[8:1],,,,2,,2,,
1/5,2,3,4,5<8[8:1]/1,,4,,3/5,,2,,1,,
8,2,5,4,6,,3/7,,2/8,,1-6[12:1],,,7-4[12:1],,,3-8[12:1],,,5,,,
6,,7/8,,1,2,3,4,6,7,8,1,4,3,2,1,7,6,5,4,
2,1,3,8,2,4,1,7,2,6,3,5,4,6,5,7,
8,6,1,5,2,4,3,6,5,7,4,8,3,1,2,8,
1,7,8,6,4,5,3,4,
{24}2,7,6,5,1,2,3,4,1,8,7,6,
{1}4bx>5[8:26]`5bx<4b[8:26],,,,
{16}4h[8:6],,,,,,,,5,,,,5,,3h[16:1],,
7h[2:1],,,1,,,2,,3h[2:1],,,,,,,,
5h[2:1],,,,,,,,6h[4:1],,,,7h[24:1],,5h[24:1],,,
4qq1[8:4]*pp7[8:4]/6,,,,,,,,,,,,,,,
2b/6b<4<8[8:26],,,,,,,,,,,,,,,,
E2,,,,E3,,,,E4,,,,E5,,,,Ch[2:1],,,,,,,,,,,,,,,,1>4[4:1],,,,,,,,,,,,,,,,
8h[1:1]/4h[8:12],,,,,,,,,,,,,,,,,,,,,,,,6h[8:2],,,,5,,4,,
3h[16:6]/5,,,,,,1h[16:6],,,,,,2,,,,3qq8[8:4]/8qq5[8:4],,,,,,,,,,,,,,,,
2b/6b,,3,4,,6,5,7,5,,6,,5/7,,4/8,,
3,1,2,8,5,6,4,7,3,5,1,8,2,7,3,6,
4-7b[12:1],,,6-1b[12:1],,,2-5b[12:1],,,
8,,,6,,4,5,3,7,8,6,4,5,3,4,2,
7,6,5,4,8,1,2,
3-5b[12:1],,,6-2b[12:1],,,1-7b[12:1],,1,,3,,4,,5,,
1-3b[12:1]/6,,,8-4b[12:1],,,7-5b[12:1],,7,,
3,,3,,1,,2/5,,3,4,3,,2/5,,1/6,,7,8,2,4,3,6,
5bh[8:1],,,1bh[8:1]/7hb[8:1],,,3bh[8:1]/4hb[8:1],,,
2bh[8:1]/5bh[8:1],,,1b/7b,,5b/6b,,
3b/7b<4b[8:1],,8,,1/7,,2,,3,3,1,2,8,3,7,4,
6-8b[12:1],,,5-1b[12:1],,,4-2b[12:1],,4,,,
7,7,,8,,1>4b[8:1]/6,,2,,1/8,,7,,6,6,8,7,1,6,2,5,
3v8b[8:1],4,2,5,3,,5>2b[8:1],,6,,7/5,,1,8,7,6,
5b/1b-6b[12:1],,,7b-3b[12:1],,,3b-6b[12:1],,,2b,,,
1b,,6b/8b,,1b/5b-2b[12:1],,,4b-8b[12:1],,,8b-3b[12:1],,,6b,,,
5b,,2b/4b,,1b/5b,,
7,5,1,4,6,2,
{24}8,3,4,
{32}5,8,7,6,1,2,3,4,5,6,7,8,
{16}1bpp4[8:4]`5bpp8b[8:4],,,,,,,,,,,,,,,,
3b/7b,,,,,,,,,,,,,,,,
{1},,,,,,,,
E
