&title=DIMENSION TRAVERSE!
&artist=Neko Hacker
&first=0
&des=Siyu
&lv_5=13+
&inote_5=(200.0001)
{4},,
{16},,6,5,6,5,
(200)
{16}8b-4[8:1],,,,,,3h[16:1],,2b-5[8:1],,,2b,,,8b,,
{16},,7,5,6,4,5,3,4b,,,,3,4,3,4,
{16}1b-5[8:1],,,,,,6h[16:1],,7b-4[8:1],,,8b,,,2b,
{16},,,7b,5x,6x,5,6,5,8b,4x,5x,4,5,4,A1,D1,
{1}A8/3xh[8:9],
{8},4,5pp6[8:2],,,,,
{16}3,3,4,,2,,3/4,,1/5,,,,6/5,,
{1}8h[1:1]/4>5[16:10],
{16}A4,A3,A2,A1,A8/6v1[8:1],,,,,,2-5[8:1],,,,7,,,,8-4[8:1],,
{16},,2,,,,3-8[8:1],,,,7,,,,5,,
{16}3-5[8:1],,,,,,6-2[8:1],,,,3,,,,4-8[8:1],,
{16},,5<3[16:5],,,,1,,,,,,
{16}A4,A5,A6,A7,A8/2-5[8:1],,,,,,7-3[8:1],,,,2,,,,1-6[8:1],,
{16},,7,,,,8-4[8:1],,,,3,,,,1,,
{8}5h[8:1],7h[8:1],6h[8:1],8h[8:1],7h[8:1],1h[8:1],8h[8:1],
{16}2,3,4,,
{8}6h[8:1],4h[8:1],5h[8:1],3,4,
{1}1b<2[4:3],
{4},8>5-1[4:5],,,,,,,,2<6<8-4[4:5],,,,,,,,5<1[4:3],,,,4pp2[4:3],,,,1qq5[8:5],,,,4qq8[8:5],,,,
{16}6b,,,,1/5,,2,4,3,,5,,2,,1h[8:3]/4,,,,7b,,5,,,,1b/4,,3/5,,,,6,5,
{2}8-3[8:1]*-5[8:1],1-6[8:1]*-4[8:1],8v3[8:1]*v5[8:1],
{16}2b/4,,,1b/8,,,5b/7,,
{8},,8-4[8:1]/4b,,,3,2-5[8:1],,5,6,7,8>2[8:1],,3,4-8[8:1],,
{8}7-4[8:1],,1,,2,4,1-5[8:1],5,,6,7>2[8:1],7,4,4,5qq2[4:3],,
{4}6,7,8,1qq6[4:3],2,3,4,5pp8[4:3],4,3,2,1pp2[8:3],5,6,
{16}7,,1x,1x,8,,2qq4[8:5],,
{4},5,6,7pp5[8:4],4,3,
{16}2,,1,4,1-5[8:1],,6,,,,,,7-3[8:1],,,,2,,,,1>4[8:1],,,,
{16}6,,,,5,,3,4,1,,5h[8:3],,,,,,
{1}1s5-3z7V51V73[8:22]b,,
{8},,,,,,,
{1}8qq4[8:5],
{8},
{8}2/4,3,7/5,6,2/4,3,7/5,6,1/4,3,8/5,6,1/5,3,8/4,6,
{8}2b/4,3/4,,7b/5,6/5,,1b/4,3/4>5[8:3],,8b,6,,1b-4[8:1]*-6[8:1],1,,,
{16}7V51[4:1]/3,,,,2,,4>2[8:1],,,,8,,6,,6-1[8:1],,,,1V74[4:1],,3,,,,,,3,,2<7[8:1],,2,,5-8[8:1],,,,1,,1V73[4:1],,,,6,,,,5<8[8:1],,
{16},,E1,,E2,,E3,,4,,,,5-8[8:1]*-2[8:1],,,,
{16}5V37[4:1],,,,1,,1>4[8:1],,,,8,,6,,6-1[8:1],,,,5V38[4:1],,5,,,,,,7,,6>3[8:1],,6,,1-4[8:1],,,,5,,5V37[4:1],,,,3,,2,,1>4[8:1],,
{16},,E5,,E6,,E7,,E8,,E1,,
{32}8x,7x,6x,5x,4x,3x,2x,1x,
{16}8bx-3[16:1]b,,,2bx-6[16:1],,,7bx-4[16:1]b,,,1bx,,,2bx,3x,2x,3x,2x,,
{32}1b/D5f,A5,D6,A6,D7,A7,,,
{16}3x,4x,1b,,,,6,5,6,5,
{16}8bV62[4:1],,,,4,,5-1-3[4:1],,,,1,,8,,7pp8[4:1]b,,,,2<5[4:1],,3,,,,,,4,,3>8[8:1],,3,,6-1[8:1],,,,1,,2,,3V15[4:1],,,,4,,5,,6<1[8:1],,
{16},,4,,3,,2V84[4:1],,,,5<3[8:3]b,,5,,D5f,,,,,,,,
{8}2/4,3,7/5,6,1/4,3,8/5,6,
{16}1,4,3,,
{32}6x,5x,4x,3x,2x,1x,8x,7x,
{16}6v1[8:1],,4,,3,,2-5[8:1],,,,6,,7,,8-4[8:1],,
{16},,2,,,,3-8[8:1],,,,7,,,,5,,
{16}6-4[8:1],,7,,4,,3-7[8:1],,,,6,,,,5-1[8:1],,
{16},,4>6[16:5],,,,8,,,,,,
{16}5x,4x,3x,2x,1x/7-4[8:1],,8,,1,,2-6[8:1],,,,7,,,,8-3[8:1],,
{16},,2,,,,1-5[8:1],,,,6,,,,8,,
{8}4h[8:1],2h[8:1],3h[8:1],1h[8:1],2h[8:1],8h[8:1],1h[8:1],
{16}7,6,5,,
{8}3h[8:1],5h[8:1],4h[8:1],6,5,
{1}8bw4[8:1],
E
