&title=瞬間、シンフォニー。
&artist=40mP feat. 夏吉ゆうこ
&first=0.5
&des=Cosmical. ~卒業前夜のReply~
&lv_5=13+
&inote_5=(200){4}3xq6<3b[2:13]/6xp3>6[2:13],{1},,,,,,,{4}4h[4:1]/5h[2:1],
,,{2}1pp6[4:5],
B5,
E7,B8,
8qq3[4:5],B1,
E3,B4,
2pp6[4:5],E6,
B7,E1,
8<5[2:1],1>4[2:1],
6h[2:1],4,
7h[2:1],1h[4:1],
{4}5/3,4V26[2:1],,,{2}7h[2:1],
4h[4:1],
{1}5s1[4:3],
{2}2h[2:1],{4}7h[4:1],4>7[8:5],
{2}5h[4:1],6h[4:1],
{4}7,8w4[4:3],,,,,,,{2}2h[2:1],
8h[4:1],
{4}4/6,5V73[2:1],,,{2}2h[2:1],
5h[4:1],
{1}4z8[4:3],
{2}7h[2:1],{4}1h[4:1],5<2[8:5],
{2}2h[4:1],3h[4:1],
{4}4,5w1[4:3],,,,,,2/8-6[8:1],
8b/4h[4:1],8-4[8:1],8/3h[4:1],8<4[16:3],
{2}8/2h[4:1],{4}3/1,1-3[8:1],
1/5h[4:1],1-5[8:1],1/6h[4:1],1>5[16:3],
{2}1/7h[4:1],{4}6/8,7>2[4:1],
2<7[4:1],3,4,4/6,
5-1[16:3],5/6,4-8[16:3],3/4pp1>3[8:5],
{8},,,,,,,4/6,
,5,4,5/3,{16},,6,4,{4}6,
4/8-6[8:1],8/4,3/8-4[8:1],8/3,
2/8<4[16:3],8/2,1,7,
5/1-3[8:1],1/5,6/1-5[8:1],1/6,
7/1>5[16:3],1/7,8,2-4[8:1],
2/5h[4:1],3,{8}3/5,3,,6/4h[8:1],
,5,3,4v1[16:3]*v7[16:3],,,,,{4}6/2,
7/1qq8[4:1],{8}8>4[4:1],,,7x,
,5/8V26[16:5],,4,4,,,5/4,
,,5/3,5,5/3,5,5/3,5,
6/2,2,6/2,2,7/1,1,7/1,1,
B7/B8/E8/A7/D8/A8,,,A4/B4/E4/D4/A3/B3,,,{4}4-8[8:1]/5-1[8:1],
{16}4bx/5bx,Cf,,,,,,,{4}5/3,2-7[8:1]/6-3[8:1],
6b/2b,{8}4x/8x,5h[2:1]/1h[4:1],{16},,,,,,,,,,3,
5,3,5,3,5,{4}3,2-5[8:1]/6-1[8:1],
2b/6b,{8}4x/8x,3h[2:1]/7h[4:1],,,,8h[2:1],
,3,{4}3,{16}6,4,6,4,7,3,7,3,
8w4[8:1],,,,,Cf,,,{8}2/6,3,4,7,
{4}7<3[4:1],3>7[4:1],2x,2xv5[8:1],
{2}6v1[8:1],{4}8/2-6-2[4:1],{8}2/7,7,
,5/3bx,2/6bx,7/1bx,{16},,2,6,{8}3,7,
{4}8<4[4:1],8/4pp5[4:1],3,{8}2,2,
{4}1-5[8:1],1/7,{8}8-4[8:1],7,{4}8/2,
1>5[4:1],1/5qq4[4:1],6,{8}7,7,
{4}8-4[8:1],8/2,{8}1-5[8:1],2,{4}1/7,
8-6[16:1]/4-2[16:1],8/4,{8}1/5,2,3,4/6,
{4}6-1[8:1],6/4,3-8[8:1],3/5,
{8}2/6,{16}5,3,{8}5,2,7/3,{16}6,4,{8}6,3,
{2}2bh[4:1]/Cf,6bh[4:1]/Cf,
{4}7b-4[8:1]/1b-5[8:1],7/1,3,4,
6<1[4:1],1>4[4:1],4<7[4:1],7,
8,1/8h[8:1],7/2h[8:1],3/6h[8:1],
{8}3/5,3,4/6,6,{2}3-8[8:1]/5-8[8:1],
{6}1b/7h[12:1],4b/6h[12:1],3b/5h[12:1],8b/2h[12:1],6b/4h[12:1],5b/3h[12:1],
{2}1bh[4:1]/Cf,5bh[4:1]/Cf,
{1}4bqq2q8[8:11]*pp6p8[8:11],
{4},,,,8b-4[8:1],
8/1,{6}5/3b,2/6b,7/1b,
{4}1b-5[8:1],1/8,{6}4/6b,7/3b,2/8b,
{4}1b/7b<4[16:3],7,3b>8[16:3],3,
{3}7b,{6}2,6/2b>5[16:3],,6,
{2}6b<1[16:3],{6}2b,3/5b,6/4b,
{4}5b-1[8:1],5/4,{6}2/8b,7/3b,4/6b,
{4}5b/3b>8[16:3],3,7b<4[16:3],7,
{3}3b,{6}6,2/6b<1[16:3],,2,
{1}2b>2[2:3]*V46V82[2:3],
{4},,,,3x/5V71[2:1],
3,3,3,
3/1<5[2:1],3,3,3,
2/4pp8[4:3],2,2,2,
1,2/7,3/8,4/7,
6/4V28[2:1],6,6,6,
6/8>4[2:1],6,6,6,
7/5qq1[4:3],7,7,7,
8,7/2,6/1,5/2,
3/B6,3,3/B7,3,
4/B8,4,4/B8,4,
3/B7,3,3/B6,3,
6/E3,5/E2,4/E8,3/E7,
6/B3,6,6/B2,6,
5/B1,5,5/B2,5,
2/8,{8}4/6,4,6/4,4,6/4,4,
7/3,7,7/3,7,8/2,8,{4}8/2,
{32}2bx/8bx,E8/E3,B7/B3,B6/B4,,,,,,,,,2bx/8bx,E8/E3,B7/B3,B6/B4,{4}E6/E5,1-5[8:5],
{16},,,,,,,,,,,,,,3,5,
{8}2,6,{32}7bx/1bx,E7/E2,B6/B2,B5/B3,,,,,,,,,1bx/7bx,E7/E2,B6/B2,B5/B3,{4}E5/E4,
6h[4:1],5h[4:1],4h[4:1],3,
{32}2bx/8bx,E8/E3,B3/B7,B4/B6,,,,,,,,,2bx/8bx,E8/E3,B3/B7,B6/B4,{4}E6/E5,1-5[8:5],
{16},,,,,,,,,,,,,,,,4,
5,4,5,4,5,4,5,{8}4,5/3>6[16:5],4,3,
,,{4}5x<1[4:1],{2}4h[4:1],
{4}1b>4[16:3],7/1,{8}8-4[8:1],7,{4}8/2,
1<5[4:1],3/1,{8}1-5[8:1],2,{4}1/7,
6<1[16:3],6/4,{8}5-1[8:1],6,{4}5/3,
4>8[4:1],4/6,{8}5-1[8:1],6,{4}5/3,
{8}8b/2h[4:1],8,8,3b/7h[4:1],3,3,{4}6bv1[8:1]/4bv1[8:1],
4/6,2/8b,{16}3b,7,3,7,{8}4,5/3,
1/7b,6,6,8/2b,3,3,1/7b,5,
5,8/2b,4,4,{4}1/7b,2/8-6[8:1],
8b/3,4/8,{8}7/3,2bx/8,,7bx/3,
,6,3/5q7[8:3],2,{4}1/5,1x-3[8:1],
1b,5/1,{8}2/6,7bx/1,,2bx/6,
,3,6/4p2[8:3],7,{4}8,6x<2V86[2:1],
6x,{8}3,3,4,5,3/6,4,
{4}5-1[16:3],5/6,4-8[16:3],3/4qq1[8:5],
4,6,{8}8,8,7,4/6,
,5,4,5/3,{16},,6,4,6,4,{8}6,
{4}3/8-6[8:1],8/4,{8}3/8-4[8:1],3,{4}8/2,
3/8<3[4:1],8/2,1,7/8,
6/1-3[8:1],1/5,{8}6/1-5[8:1],6,{4}1/7,
6/1>6[4:1],1/7,8,1/2-4[8:1],
2/5h[4:1],3,{8}3/5,4,5,6/4h[4:1],
,5,3,4v7[4:1]*v1[4:1],,4,,,{4}6/2,
7/1qq8[4:1],{8}1/8>4[4:1],,,7x,
,5/8V26[16:5],,8/3,4,4,,4h[8:1]/5h[8:1],
,,{4}4/3,6/5-1-3-7-2-5b[4:3],5/6h[4:3],
,,,7/3-6[8:1],
3x/7-2[8:1],7x/4-8[8:1],4x/6-1[8:1],6x/2-6[8:1],
2x/8-4[8:1],8x/5-1[8:1],5/7,6/3,
8/1b-5[8:1],{8}1b,7b-3[8:1],,7b-4[8:1]/1b-4[8:1],,1b/7b,
{16},,3,5,3,5,3,5,{4}3,2pp5[4:15],
{1}6pp1[2:5]*pp1[2:5],
,,,4/6,
5/3,
1>6[4:5]*q6[4:5],
{2},,8<4<8[2:3],
E4,
E3,E2,
1>5>1[2:3],E6,
E7,{4}E8,8x-4[8:1],
8x,3,4/6<2[4:1],2v5[16:3],
4,{8}4,{16}3,5,{4}3,4pp1[8:5],
{8}4/8,,,1>3[16:3],,,{4}8h[4:3],
B4,B3,B2,1-5[8:1]*-3[16:1],
{8}1,,,4/6h[8:3],,,{4}4,
{16}5,3,5,3,{8}5,6-2[8:1]/4>2[8:1],,6/4w8[4:1],,4x,
{24},,,,,,,,,,,,{6}6/4b,7/3b,8/2b,
{2}Cf/B7/B3,{6}3/5b,2/6b,1/7b,
{3}B6f/E6/E7,B2f/B1/B3,{6}4/7b,3/6b,
{3}B6f/E7/B7/B5/E6,B2f/B1/E2/E3/B3,{6}4x/6x,6x/4x,
{12}3b,5,3,5,3,5,2,6,2,6,2,6,
1b,7,1,7,1,7,2,8,2,8,2,8,
3b,7,3,7,3,7,4b,6,4,6,4,6,
3b,5,3,5b,3,5,4b,4,4,4bw8[2:1]*w8[2:1]*w8[2:1],4,4,
{1}4b,
{2}3b/Cf,7b/Cf,
{4}2-7[8:1]/6-3[8:1],2/6,{24}8x,1x,2x,3x,4x,5x,{4}6x,
{8}7,{16}1,8,{4}1w5b[8:1],{2}1b/Cf/B1/B5/B6/B4,
{8}6/2,7<5[8:1]/1p5[8:1],,7q3[8:1]/1>3[8:1],,7qq1[8:3],,7/4h[4:1],
,,3,2/8x,{16}1,7,1,7,{4}1s5[8:1],
1/5,7/3,{8}2/6,{16}3,5,{8}4,7/3,
{4}7<8[16:7],{8}7/4,3,{4}2,2xv5[8:1],
{8}2/6v1[8:1],7,{4}6,8/2-6-2[4:1],{8}2/7,8,
,7b-4[8:1]/3-8[8:1],2b/6,7b/3,{16},,1,5,2,6,{8}3,
{4}8qq4[2:1],8/2,4pp3[8:3],{8}3,2,
{4}1p4[4:1],1,{8}8-4[8:1],7,{4}8/2,
6/1pp5[2:1],1/7,5qq6[8:3],{8}6,7,
{4}8q5[4:1],8,{8}1-5[8:1],2,{4}1/7,
8-6[16:1]/4-2[16:1],8/4,{8}1/5,{16}2,6,{8}3,4/7,
3>8[8:1],4,{4}3/5,{8}6<1[8:1],5,{4}6/4,
{16}2b,7,3,6,{8}4,3/5,{16}6b,4,7,3,{8}8,7/3,
{2}2bh[4:1]/B6f/B7/B5/E7/E6/A6,6bh[4:1]/E2/E3/B3/B1/A2/B2f,
{4}1b-5[8:1]/7b-3[8:1],7/1,4,{8}4/6,5,
6<1[4:1],6,1>4[4:1],1,4<7[4:1],4,,,4,
3,8/2,7,2/6,3,6/4,5,
{16}4,6,4,6,4,6,{8}4,{4}3-8[8:1]/5-8[8:1],5/3,
{6}1b/7h[12:1],5b/6h[12:1],3b/4h[12:1],8b/2h[12:1],4b/3h[12:1],6b/5h[12:1],
{2}1bh[4:1]/B5f/B6/B4/A5/E5/E6,5bh[4:1]/B2/B8/B1f/E1/A1/E2,
{1}2bv8<7-5[4:5]/8bv2>3-5[4:5],
{4},,,,1h[4:1]/8b-4[8:1],
8,{6}5/3bh[12:1],1/6bh[12:1],7/2bh[12:1],
{4}8bh[4:1]/1b-5[8:1],1,{6}4/6bh[12:1],8/3bh[12:1],7b/2,
{2}1bh[4:1]/7b<4[8:1],5bxh[4:1]/3b>8[8:1],
{6}7bh[6:1],4,3,6/2b>5[16:3],7,6,
{2}6b<1[16:3],{6}2bh[12:1],4/7bh[12:1],6/3bh[12:1],
{4}4bh[4:1]/5b-1[8:1],5,{6}2/8bh[12:1],6/3bh[12:1],4/7bh[12:1],
{2}5bh[4:1]/3b>8[8:1],{6}1bxh[6:1]/7b<4[16:3],,1x,
{3}3bh[6:1],{6}5,2h[6:1]/6b<1[16:3],,2,
{1}2b<4[1:1]*<7[2:1],
{12},,,,,,3,5,1,6,4,8,
{2}2h[4:1],{12}6,4,8,3,5,1,
{2}7h[4:1],{12}3,5,2,6,4,7,
{2}3h[4:1],{12}6,4,7,3,5,2,
{2}6h[4:1],{12}3,5,3,6,4,6,
{2}4h[4:1],{12}6,4,6,3,5,3,
{2}5h[4:1],{12}3,4,3,4,3,4,
{4}2h[4:3],{32},,,,,,,,,,,,,,,,A4,D5,A5,D6,A6,D7,A7,D8,
{4}2bx/8bxh[4:3],{32},,,,,,,,,,,,,,,,A5,D5,A4,D4,A3,D3,A2,D2,
{4}7bx/1bxh[4:3],{32},,,,,,,,,,,,,,,,A4,D5,A5,D6,A6,D7,A7,D8,
{2}3bx/D1/B1/B8/A1/A8/E1f,7bx/D5/B5/B4/A5/A4/E5f,
{32}8bx/1bx/D8/E8/D2/E2,A2/B2/A7/B7,D3/E3/E7/D7,A3/B3/B6/A6,E4/D4/E6/D6,A4/A5,
E
