&title=Little Red Riding Hood
&artist=RoughSketch
&first=0.565
&des=bpm为55~220请谨慎游玩
&lv_5=15
&inote_5=(55)
{4}2-7[8:1]/5h[4:1],,1-4[8:1]/8h[4:1],,
{4}7-2[8:1]/4h[4:1],,8-5[8:1]/1h[16:1],{16}1w5[8:3],,2,2,
{4},{8},{16},5h[32:1]/4h[32:1],
{32}7b/2b,,3,6,4,5h[32:9],,3,,6,6,,7,,3,,
{32}1/7,,6,3,5,4h[32:7],,6,,3,3,,2,2,84,84,
{16}3b/7-2[8:1],54,54,{32}5,4,4,,4,,4,4,3,8,
{32}7-3[32:1]/2,2,2,2,
{64}15,8,7,6,5,4,3,2,
{16}7b/1h[4:1],,,2h,
{64}
8,,1h[32:2],,,,8,,
1,,7,6,5,,1,,
,,8h[16:1],,,,1h[32:1],,
7,6,5,,2h[16:1],,,,
{16}4b-2[32:1],4b-8[32:1],{64}4b-1[32:1],,5b,3b,4b-7[32:1],,,,
{4}4b>5[4:1],4b/8h[4:1],
{32},,,,7,,2,4,
{64}
3,,5,,3,,4,,2,,5,4,5^8[32:1],,2h[32:1],,
1,,3,,1,,2,,4,3,4,,25,,,,
2,,8,,2,,1,,3,,8,2,8^5[32:1],,3h[32:1],,
4,,2,,4,,3,,1,2,1,,38,,2,,
{32}2-6[32:1],,{48}5,6,7,{32}8,8,,,{32}1-4[32:1]/2,8,7-4[32:1],,{16}5h[16:1],8h[16:1],
{16}1b,7b,{64}3,,5,5,4^1[32:1],,7h[32:1],,
8,,6,,8,,7,,5,6,5,,74,,,,
7,,1,,7,,8,,6,,1^4[32:1],7,1,,6h[32:1],,
5,,7,,5,,6,,1b/8b,,,,,,,,
4,,6,,4,,5,,3,,6,5,6V85[16:1],,3h[32:1],,
2,,4,,2,,5,,3,4,2,,1/6,,,,
{32}2h[32:2],,{48}5,6,7,{32}8,4h[32:1],3h[32:1],2h[32:1],
{16}1w5[24:1],64,37,28,
{16}1b,7h[16:1],5h[16:1],{48}1-5[24:1],8,7,
{16}6h[16:1],2h[16:1],4h[16:1],1,
{16}7>6[8:1],2h[16:1],4h[16:1],{48}7,8,1,
{16}2h[16:1]/7,,{64}1,,1,2,36,,7,,
{16}8b,8b/2h[16:1],4h[16:1],{48}8-4[24:1],1,2,
{16}3h[16:1],7h[16:1],5h[16:1],8,
{16}2<3[8:1],7h[16:1],5h[16:1],{48}2,1,8,
{16}7h[16:1]/2,,{32}8,26,84,26,
{48}7,6,5,4,3,2,{16}1h[16:1],{48}4-1[24:1],5,6,
{16}7h[16:1],3h[16:1],1h[16:1],4,
{16}5>6[8:1],2h[16:1],8h[16:1],{48}5,4,3,
{16}2h[16:1]/5,,{64}2,,2,3,4,,45,,
{16}5b,5b/3h[16:1],1h[16:1],{48}5bV71[24:1],4,3,
{16}2h[16:1],6h[16:1],8h[16:1],{32}5b,2,
{16}34,34,{32}1q4[8:1]/8,27,,45,36,,,,,,,,
(27.5){16}8-5[16:1],5-2[16:1],2-7[16:1],7-4[16:1]*-4[16:1],
{16},,,1h[16:1],
(55){32},,6,3,5,4h[32:9],,6,,3,3,,2,,6,,
7/2,,3,6,4,5h[32:9],,3,,6,6,,7,,3,,
{32}8/2,{64},,5,4,{32}6,4,5h[32:7],,3,,6,6,7,8,8,15,15,
{16}6b/2-7[8:1],45,45,{32}4,5,5,,5,,5,5,6,1,
{32}2/7,7,8,8,
{64}1,2,3,4,5,6,7,8,
{128}2b,3,4,5,6,7,8,1,2,3,4,5,6,7,8,1,2,3,4,5,6,7,8,1,2,3,4,5,6,7,8,1,
{4}2b/6b,,
{16}5b-1[32:1],5b,{64}5b,,4b,6b,5b,,,,
(220){4}5b/8,8,8-4[8:1],8b/2,
{4}1-4[8:1],1/7-3[8:1],7/5-1[8:1],5/8-3[8:1],8/2-6[8:1],4-8[8:1],4,{8}1-6[8:1],2,
{4}3-8[8:1]/1,5-3[8:1]/3,1-5[8:1]/5,18,{8}7,6,5/1s5[4:2],,,,
7<8[4:10],7,
(110)7b,,,,,,,,4,,4-7[16:1],,
{16}4b/1-4[16:1],2,,8,71,,6,6,
{16}5b<8[16:1],,{24}2,3,4,{16}5-1[16:1],,4,8,5/6-2[16:1],,2-8[16:1]/7,,64,,5,,
{16}4>1[16:1],,{24}7,6,5,{16}4-8[16:1],,5,1,4/3-7[16:1],,7-1[16:1]/2,,35,5,4,4,
{16}4b<7[16:1],,{24}1,2,3,{16}4-8[16:1],,3,7,4/5-1[16:1],,{32}1-7[16:1]/6,2,3,4,{16}5,,3,,
{16}5b>2[16:1],,{24}8,7,6,{16}5-1[16:1],,6,2,5/4-8[16:1],,{32}8-2[16:1]/3,7,6,5,{16}4^7[16:1]*^2[16:1],,5,,
{4}4bw8[4:1],,,{8}1-5[16:1]/8-4[16:1],27,
{8}1b/8b,{24}1^6[16:1],2,3,4,,,1/2,3,4,5-1[16:1],,,78,,,{16}5b,6,7,8,
{16}4>1[16:1],,{24}7,6,5,{16}4-8[16:1],,5,1,4/3-7[16:1],,7-1[16:1]/2,,35,5,4,4,
{8}3,{24}8^3[16:1],7,6,5b,,,8/7,6,5,4b-8[16:1],,,21,,,{16}4b<3[4:4],3,2,1,
{1}4,
(55){32}4>7[8:1],4,4,4,{64}4,5,4,5,4,5,4,5,,,,,,,,,{32}6b,,1,8,
{64}2b-5[32:1],,8,,1,,1,,7b-4[32:1],,1,8,1,,8,,
2b-4[32:1],,8,,1,,1,,7b-5[32:1],,1,8,1,,1,8,
2b-6[32:1],,8,,1,,1,,7b-3[32:1],,1,8,1,,8,,
2b,,8,,1,,1,,7,1,1,,5h[16:1],,,,
{64}2b-5[32:1],,8,,1,,1,,7b-4[32:1],,1,8,1,,8,,
2b-4[32:1],,8,,1,,1,,7b-5[32:1],,1,8,1,,1,8,
2b-6[32:1],,8,,1,,1,,7b,,1,8,1,,8,,
2b-5[32:1],,7,,1,8,1,8,2,7,2,7,4,5,3,6,2b/7,
