&title=DAY BY DAY
&artist=T-ara
&first=0
&des=芋圆
&des_5=芋圆
&lv_5=13.3
&inote_5=(118){4}
,4/Ch[2:7],{8}4,4,{4}3,
3,2,2,1h[4:1],
,5x,{8}5,6,{4}7,
7,8h[2:1],,,,5h[4:1],
{8}3,4,{4}3h[4:1],
{8}6,5,{4}6h[4:1],{8},2h[8:3],{4}7h[4:1],
,1h[8:3],{8}2,3h[8:1],4h[8:1],5h[8:1],
,,{4}8/1b,{8},,,,,,6/5,
{16}3,4,{8}3,{16}2,1,6x,7x/5x,,8/4,
,,,,{8}3/4,{16}6,5,{8}6,{16}7,8,3x,2x/4x,,1/5,
,,,,{8}7x/8x,{16}2,1,{8}2,4/3,{16}6,5x/7x,,5/8,
,,,,{8}3/2,{16}7,8,{8}7,5/6,{16}3,4x/2xh[24:1],,1x/4xh[24:1],
,,,4h[8:1],{8}3,{16}3,4,2,5,1,6,{8}8p2[8:1],1/7,
{4}8,{16}6h[8:1],,,5,7,4,8,3,{8}1q7[8:1],8/2,
{4}1,{16}2x,1xh[8:1],{8}2x,3,5/Cf,{16}1x,7h[8:1],{8}8,
6,4h[8:1]/C,{16},,6,1,5V71[8:1],2,4>3-1[8:1],3,{8}5-1[8:1],4,
{2}5,{4}7>3[4:1],3<7[4:1],
7V13[4:1],{8}3V57[4:1],C,7V13[4:1],C,,,,,,,{4}2h[8:3],
1h[8:3],
8h[8:3],7h[8:3],{8},2b,,,,,,,{4}8,
6p8[16:3]/2p4[16:3],
6/2,{8}8x-6b[8:1],1-3V17[8:3],8,1,,,,,,,{4}6-2[8:1],
6/7,
{8}1-7[8:1]*-6[8:1],5,{4}1b-3[8:1]*-4[8:1],1b-5[8:1]*w5[8:1],1b,
{8},,,1/2,3,4/5,6,7/8,
1,2/8,3-8[8:1],4,6<3>6[8:3],5,,,,,,1<6[8:1],
2,3,{4}4,
{8}5>2[8:1],6,7,8-4[8:1],,7/8,,,,,,8/7,
6,5/4,3,2/1,
8,7/1,6-1[8:1],5,3>6<3[8:3],4,,,,,,8>3[8:1],
7,6,{4}5,
{8}4<7b[8:1],3,{4}4b>1b[8:1],4bw8[8:1],4b,
{8},,2>4[8:1],1,6<8[8:1],5,{4}4-8[8:1],
{8}4/6-2[8:1],7,6/2,3,3bx<6[8:1]/7bx>2[16:3],1bx/5bx,{4}7b/3b,
{8},,8<5[8:1],7,2>5[8:1],3,6-1[8:1],7,
2-5<1[0.7627##0.7627],3h[16:1],,2,,,,,,,7<5[8:1],
8,3>1[8:1],4,{4}5-1[8:1],
{8}5/3-7[8:1],2,3/7,6,2bx-5-7[16:3]/6bx-1-3[16:3],8bx/4bx,{4}2b/6b,
{8},,1>4[8:1],2,7<4[8:1],6,3-8[8:1],2,
7w3[0.7627##0.2542]*-4>8[0.7627##1.2712],6h[16:1],,7,,,,,,,{4}6h[2:3]/C,
E1,E2,
E3,E4,{2}E5,
{4},3h[2:3]/C,E1,E8,
E7,E6,{2}E5,
{4},6h[2:3]/C,E1/B1/B8,E2/B1/B2,
E3/B2/B3,E4/B3/B4,{2}E5/B4/B5,
{4},3h[2:3]/C,E1/B8/B1,E8/B8/B7,
E7/B7/B6,E6/B6/B5,{2}E5/B5/B4,
{8},,,8<8[2:3],{4}E1,E2,
E3,E4,{8}E5,B5h[8:3],,,,,,1>1[2:3],
{4}E1,E8,
E7,{8}E6,B5,,B4h[8:3],,,,,2/8,
3,4/5,6,7/5,8,
2/1,3>8[8:1],4,6-1-3-8-6b[8:3],{2}5,
{8},,,,1<6[8:1],2,{4}3,
{8}5>2b[8:1],6,{4}5b<8b[8:1],5bw1[8:1]*-1[8:1],5b,
{8},,2>4[8:1],1,2/6<8[8:1],5,{4}6/4-8[8:1],
{8}4/6-2[8:1],7,6/2,3,3bx<6[8:1]/7bx>2[16:3],1bx/5bx,{4}7b/3b,
{8},,8<5[8:1],7,8/2>5[8:1],3,2/6-1[8:1],7,
6/2-5<1[0.7627##0.7627],3h[16:1],,2b,,,,,,,7<5[8:1],
8,7/3>1[8:1],4,{4}3/5-1[8:1],
{8}5/3-7[8:1],2,3/7,6,6bx>3[8:1]/2bx<7[16:3],8bx/4bx,{4}2b/6b,
{8},,1>4[8:1],2,1/7<4[8:1],6,7/3-8[8:1],2,
3/7-4>8[0.7627##0.7627],6h[16:1],,7b,,,,,,,{4}1/Ch[4:7],
2,2,
3,8,7,{8}7,6,
6,,,E2,E3,E4,E5,E6,
E7,E8,B8,B1,B2,B3,B4,B5,
{4}B6,8/Ch[4:7],7,7,
6,1,2,{8}2,3,
3,,,E8,E7,E6,E5,E4,
E3,E2,B1,B8,B7,B6,B5,B4,
{2}B3,1pp3pp5pp7pp1[8:29],
{1},,,{4},,{8},5qq3qq1qq7qq5b[8:31],
{1},,,,{4},,{8}7/2>4[16:1],
{16}8x<6[16:1],1x,{8}2x,8,{16}1x,2x/8x,,7b/3b,
,,,,{8}2/7-3[8:1],{16}1x-5[8:1],8x,{8}7x,1,{16}8x,7x/1x,,2b/6b,
,,,,{8}7x/8x,{16}2,1,{8}2,4/3,{16}6,5x/7xh[16:1],,8x/5xh[16:1],
,,,,{8}3/2,{16}7,8,{8}7,5/6,{16}3,4x/2xh[24:1],,1x/4xh[8:1],
,,{8}5xh[16:3],6x,{16}6,5,7,4,8,3,{8}1q7[8:1],8/2,
{4}1b,{16}3xh[8:1],,,4x,2,5,1,6,{8}8p2[8:1],1/7,
{4}8b,{16}7x,8xh[8:1],{8}7x,6,4/Cf,{16}8x,2h[8:1],{8}1,
3,5h[8:1]/C,{16},,3,8,4V28[8:1],7,5<6-8[8:1],6,{8}4bx-8[8:1],5bx,
{4}4x,{16}2>4[8:1],6,{8}1,2/7<5[8:1],8,7/2-6[8:1],1,
2/7-3[8:1],8,7,6,3bx<6[8:1]/7bx>2[16:3],1bx/5bx,{4}7b/3b,
{8},,8-4[8:1],7,8/2-6[8:1],3,2/8-4[8:1],7,
8/2-6<1[0.7627##1.2712],3,,2b,{16},,,,,,,,,,,,7<5[8:1],
3,{8}8,7/2>4[8:1],1,2/7-3[8:1],8,
7/2-6[8:1],1,2,3,6bx>3[8:1]/2bx<7[16:3],8bx/4bx,{4}2b/6b,
{8},,1-5[8:1],2,1/7-3[8:1],6,7/1-5[8:1],2,
1/7-3>8[0.7627##1.2712],6,,7b,,,,,,,{4}Ch[4:7],
{8}E2,E3,{4}E4,
{8}E6,E7,{4}E8,{8},E2/B1/B2,{4}E6/B6/B5,
,8>8b[4:7]*-4b[4:3],
E
