&title=Neon Tetra
&artist=ginkiha feat.TEA
&first=0
&des=Neon Akariza
&des_5=Neon Akariza
&lv_5=14
&inote_5=(172){4}3h[4:1],{8}5,4/3,,5,{4}6/4,
{8}8,8,{4}8,{8},2,{4}3/1,
6h[4:1],{8}4,5/6,,4,{4}3/5,
{8}2,2,{4}2,{8},8,{4}1/7,
{8}3h[4:1],4,5,E6/B6,,7,{4}7h[4:1],
{8}4,4,{4}4/B7,{8},6,{4}6/B3,
{8}7h[4:1],8,1,B2/B3,,4,{4}4h[4:1],
{1}5w1[0.6977##0.3488],
{4}1h[8:3],{8}3,8-4[8:1],,8/7,{4}6,
{8}4/3,{16}5,2,6,1,{8}7,{16},8,1,7,{8}2-6[8:1],4/5,
{4}2/7h[8:3],{8}6,1-5[8:1],,1/2,{4}3,
{8}5/4,{16}3,6,4,5,{8}4,{16},8,2,7,{8}1,5/6,
{4}4/3h[8:3],{8}2,8-4[8:1],,8/7,{4}6,
{8}1/2,{16}4,3,4,5,{8}6,{16},8,7,1,{8}7,2/6,
3/5h[4:1],{4},{8}4-8[8:1],5,4/3,{4}2,
{8}8/7,{16}6,4,5,4,{8}3,{16},1,3,8,{8}2,1/7,
{4}8/6-1[8:1],{8}6,4-8[8:1],,4,{4}6,
{8}1/2,{16}3,8,4,7,{8}5,{16},8,7,1,{8}6,5/2,
4/3-7[8:1],3/4-8[8:1],3,4,,1,{4}2/8,
{8}5/6,{16}8,7,1,8,{8}2,{16},6,5,4,{8}3,8/1,
7/2,2/7>5[4:1],3/6,C,,1,{4}1xh[4:1],
{8}8,{16}1,7,2,8,{8}1,{16},6,5,3,{8}4,6/3,
{4}2-5[8:1],{8}2/6,7-4[8:1],,7/3,{4}1h[1:1],
,,,{16}8,1,8,1,
{4}7b/2b<3[4:5],{8}5,5,,1,{4}1h[1:1],
,,,8>6[2:3],
8,{8}2,2,,5,{4}5h[1:1],
,,,7<1[2:3],
7/8,{8}3,3,,5,{4}5,
{8}7,7,{4}7h[4:1],{8},2,{4}2/5pp4[4:3],
5,{8}3,3,,2,{4}2,
{8}8b/4,8/4,8/5,8/5,8/6,8/7,7/8-4[8:1],{16}8,8,
{8}8,1,2,3qq5[4:3],,4,{4}4,
{8}6-1[8:1],6,{4}6,{8}8w4[8:1],8,{4}8pp6[2:1],
{8}3,3,4,4q5[8:5],,7,{4}7,
{8}8<1[4:3],8,{4}8,{16}2,2xh[16:3],{4},{8},4,
4qq4pp4[8:11],3/5,4,,5,{4}5,
{8}6-1[8:1],6,{4}6,{8}2-6[8:1],2,{4}2,
{8}4/6,5/3,2/4,1/3pp6[2:1],,8,{4}8,
{8}1,2,{16}3,5,4,6,{8}5,7,{4}8/1-5[8:1],
1b/Cf,{8}5/6,7,6/5,4,5/6,8,
1/B1,2/B2,3/B3,4/B4,{4}B5/5-1[8:1],5/6,
{8}7-5-3-1-7[8:3],8,{4}1-5[8:1],,{8}A6/E6/D6/A5,{16}6x/5x,5x/4x,
{8}4x/3x,1/2,{4}7/8-3-5-1[8:3],{8}8,7,6,5,
2/1,3,2/1,8,2/1,3,4/B4,5/B5,
6/B6,7,7/8-4[8:1],1,8/7-3[8:1],6,{4}7/8,
2h[8:7],{8}3,4,5,6,7,8,
{16}1,1,1,1,1,1,1,1,{8}1-5[8:1],4/3,{4}8/1,
{16}6b,5,{8}6,8/7,3/4,1/2,6/5,7/8,4/5,
2/B2,3/B3,4/B4,5/B5,{4}6-1[8:1]/7-4[8:1],6/7,
{8}2<7[8:1],8<5[8:1],6>3[8:1],4>1[8:1],1,8,7,{16}6,5,
{8}4,1,{4}1-5[8:1],1/8,{8}6,5/7,
4/3,3,3/2,2,1/2,3,3/B4,2,
2/B1,3,3/E5,2,E1/2-6[8:1],3/4,{4}1/2,
8-4-6-1[8:3],{8}1,2,3,4,{4}1-6[8:1]/5-2[8:1],
1/5,{8}6/2,5/1,{16}8h[16:1],4h[16:1],8h[16:1],4h[16:1],8h[16:1],4h[16:1],{8}8,
{1}3xh[4:3]/7x>5[2:1],
{4}5h[8:5]/6>1[2:1],{2},{4}5,
8h[8:5],{8}2,B3,,4h[8:7],,5-7v4-6[8:5],
{1},4h[4:3]/3<8[2:1],
8-6-4-2-8[2:1]/1-3-5-7-1[2:1],
{8}3,4h[4:1],,6h[4:1],,1h[4:3],,3h[2:1],
{2},3-7[8:1]/1-5[8:1],
{8}5xh[8:3],6,7,B8/A8,,1,{4}8/2,
{8}5/3h[4:3],5,{4}B5,{8}7,7,{4}B7/B8,
{8}7-5[8:1],5-2[8:1],7,3h[4:1],,1,8/2,7h[8:7],
5,5,{4}B5,{8}3,3,{4}B3/B4,
{8}1xh[8:3],8,7,A6/B6,,4,{4}5/3,
{8}7,7,{4}7/B3,{8}4,4,{4}4/B7,
{8}5,6,4,5h[2:1],,7,,1>8[8:5],
{2},Ch[2:1],
{8}8,7/1,5,6/4,2,3/1,{16}7x,8,7,8,
{4}6b/1bh[8:3],{8}3,8-4[8:1],,8/7,{4}6,
{8}3/4,{16}1,2,3,4,{8}5h[4:1],{16},7,6,5,{8}4h[4:1],3,
{4}2h[8:3],{8}7,5-1[8:1],,5/6,{4}7,
{8}2/1,{16}8,7,6,5,{8}4h[4:1],{16},2,3,4,{8}5h[4:1],7,
{4}8h[8:3],{8}6,1-5[8:1],,1/2,{4}3,
{8}5/6,{16}7,8,1,2,{8}3h[4:1],{16},1,2,3,{8}4h[4:1],5,
{4}6h[8:3],{8}7,4-8[8:1],,3/4,{4}2,
{8}7/8,{16}1,2,3,4,{8}5h[4:1],{16},3,4,5,{8}6h[4:1],8,
2h[8:3],3,3,8-4[8:1],,8/7,{4}6,
{8}4/3h[4:3],{16}E8,E7,E6,E5,{8}E4,{16},7,6,5,{8}4,1/2,
7/8-4[8:1],8/7-3[8:1],8,7,,5,{4}4/6,
{8}8/7h[4:3],{16}E1,E2,E3,E4,{8}E5,{16},3,4,5,{8}6,1/8,
2/7,6/3>5[4:1],4/5,C,,8x,{4}8h[4:1],
{8}1,{16}4,3,6,4,{8}5,{16},8,7,2,{8}1,7/2,
{4}6-1[8:1],{8}6/1,3-8[8:1],,3/8,{4}5h[1:1],
{2},{8}3,3,{16}4,5,4,5,
{4}4x-2-6[8:3],{8}6/4,6-1-5[8:3],,5,{4}5<4[8:5],
,,,8h[4:1],
7-5-2[8:3],{8}2/7,2-8-4[8:3],,4,{4}4-2-5-1[8:5],
,,,3h[4:1],
2<5[8:3],{8}5/2,5-8-4[8:3],,4,{4}4>1s5[8:5],
,,,{8}6h[4:1],7,
{4}8-4-2-6[8:5],{8}4/8,4,,1,{4}1h[4:1],
{8}5b,5/1,1/6,6/1,1/7,1/7,8/1-5[8:1],{16}1,1,
{8}1,8,7,6pp5[8:3],,6,{4}4,
{8}3-7[8:1],B6/B5,{4}3,{8}5w1[8:1],E4,{4}5,
{8}3qq5[8:3],B7/B6,3,6h[4:1],{4},7>5[2:1],
{8}5,5,{4}B6/E7,{8}8w4[8:1],B1,{4}8,
{8}1,1v6[8:1],B8/B7,1/2,,4,{4}4h[1:1],
{8}7-4[8:1],A6,{4}7,{8}2-5[8:1],B1,{4}2,
{8}6/4,5/7,6/8,1h[8:3]/7>5[4:1],,7,{4},{8}6/2,
6/2,7/3,7/3,4/8,4/8,{16}1h[16:1],5h[16:1],1h[16:1],5h[16:1],
{8}1x-5[8:1],8,1,{16}7,7,{8}4-7[8:1],2,{4}4/3,
{8}8v3[8:1],2,8/7,{16}5,5,{8}2-5[8:1],3,{16}2,1,8,7,
{8}6/5,5/4>1[8:1],3/4,4/5,{16}8x,7,6,5,4,3,2,1,
{8}7/8-4[8:1],6/5,{4}8/7,{8}E4/1-5[8:1],{16}3x,2,{8}1/8,7,
6-1[8:1],5,{4}6,{16}3,4,2v5[8:1],4,{8}3,2/1,
8-4[8:1],7,{4}6h[4:1],{16}2,2,{8}4-8[8:1],5,3/4,
1h[8:5],E2,E3,E4,E5,{16}6>3[8:1],8,{8}7,6,
1,1h[8:3],{16}2,8,7,6,5,4,3,2,{8}8-4[8:1]/1-5[8:1],B6/B3,
{4}1/8,7b,{16}2,1,{8}2-5[8:1],4/3,1/2,
8,4,5/6>3[8:1],8/7,{16}E6,E5,{8}E4,1/2,3,
4/5,6v1[8:1],7/8,5/6,{16}2,2,{8}8-4[8:1],3,8/1,
2,3,4/5,B8/B7,{16}7x,5,7,5,6,4,6,4,
{8}5-1[8:1],3,5,4,{16}8,7,6,5,{8}4/3,B1/B2,
7-3[8:1],8-4[8:1],7,8,{24}7,6,5,4,{12},{24}8,1,2,3,{12},{8}5-1[8:1],
6-2[8:1],5,6,{24}5,4,3,2,{12},{24}6,7,8,1h[8:5],{12},{8}7,
7,6,6,{16}5,4,3,2,1-5[8:1],8,7,6,
{4}5b/Cf,{8}8/7,1/6,,4/3,5/2,6/1,
{16}8,7,8,7,4,5,4,5,{24}1,2,3,7,6,5,2,3,4,8,7,6,
{8}5/4>1[8:1],7<4[8:1],4,7,,1-5[8:1],4-8[8:1],1,
4,{16}E6,E5,{8}E4,{16}7,8,{8},2,{4}4-8[8:1],
5/4,{8}6,6-2[8:1],,8-3[8:1],8,A8,
{16}4,5,6,7,8/1,2,3,4,{24}6,5,6,5,7,4,7,4,8,3,8,3,
{8}1x/2x,2x-6[8:1]/1x-5[8:1],3x/8x,2x/1x,,7/4,3/8,2/1,
{16}3,4,2,5,1,6,8,7,{32}8h,1h,2h,3h,4h,5h,6h,7h,{4}8h/Cf,
3-8[8:1]/2-5[8:1],3/2,{8}7,8/7,6,6/5,
7,7/8,6,{16}5/6,4,{4}3h[4:1],{16}2,3,2,3,
{8}2-5[8:1],5-8[8:1],8-3[8:1],3-6[8:1],6-1[8:1],1,1,{32}A1,B1,C,B5,
{8}A5,8,{4}7v4[8:1]/1v4[8:1],7/1,{8}5/3,6/2,
7/1,1/E6,1/B6,1/B7,1/8,1,1/3,1,
1/6,1,1/4,1,1/2,5/4,{4}8/7,
1h[8:7],{8}2,3,4,5,6,7,
{16}8,8,8,8,8,8,8,8,{8}8-4[8:1],6/5,{4}8/1,
{8}4/3,3,2/1,2,4/3,3,2/1,2,
3/4,B4,1/2,B1,{2}3/2z6[16:3],
{8}8<5[8:1],2-5[8:1],8-5[8:1],2>5[8:1],8-4[8:1],2,8,{32}2,B2,C,B6,
{8}A6,5,{4}5-1-7-4[8:3],{8}5,4,3,2,
8x/1x,3,1/8,6,1/8,E4,1/8,E6,
1/8,5/6,3/2,7/8,4/5,2/1,{4}8/7<4[8:1],
7/8-4-2-5[8:3],{8}5,6,7,8,{4}1h[8:7],
{8}2,2,3,3,4,{16}5,1,5,1,5,1,
{8}4x/8xv5[8:1],B7/B6,8/5,B3,2-6[8:1],B3/B4,2/1,B8,
7-3[8:1],B6/B5,7/8,B1,1v4[8:1],B2/B3,1/4,B6,
{4}7h[4:1],{8}5,6/7,,1,{4}8/2,
{8}4,4,{4}4/B6/B7,{8},6,{4}5/7,
2h[4:1],{8}8,2/1,,4,{4}5/3,
{8}6,6,{4}6/B1/B2,{8},4,{4}5/B3,
{8}7h[4:1],8,1,2/7,,4,{4}B5/B3,
