&title=Stellae's Cryptic (Project Pentjet)
&artist=Lycanix
&first=0.97
&des=Aza
&lv_5=14+
&inote_5=(165)
{8}3h[2:1]/4b,5,6,7V15[2:1],{4},,,{16},,3,4,{8}2h[4:1],4,5,6,6h[2:1],5,4,3V15[2:1],{2},7h[2:1],{16}E3/B3,,,E7/B7,,,E5/B5,,{8}2h[2:1],1,8,7V51[2:1],{4},,,{16},,3,4,{8}2h[4:1],4,5,6,7h[4:1],1x,3x,4v5-2[1:1]/6v5-8[1:1],{2},,,
{8}3x/5b,2,3x/4,5,3x,E8,3x/E7,E6,3x,,3x,{16}8,7,{8}3x/6,4,3x/5,2,4/6x,7,5/6x,4,6x,E2,6/E3,E4,6x,,6x,{16}5,5,{8}7,4/6,3,2,1x>4[4:1],,,{16}6,7,{8}8x<5[4:1],,,{16}2,3,{16}4h[4:1],,,6h[4:1],,,5h[4:1],,{4}8h[4:1],2h[4:1],{8}3>4[1:1],,,4,,,3,,{2}2h[8:7],5hb[2:1],
{24}2bx-6b[8:1],3/6,4/7,5/8,,,{4}1x-7-3-5[2:1],,,{16}2,,,2,7<8[4:1],,3,,{4}7,4hx[4:1],{24}7bx-3[8:1],6/3,5/2,4/1,,,{4}8x-2-6-4b[2:1]
,,,{16}7,,,7,2>1b[4:1],,6,,{4}2,5hx[4:1],{16}2,4,2,4,2,4,2,4,3,5,3,5,3,5,3,5,2,6,2,6,2,6,2,6,1,7,1,7,1,7,1,7,{8}1x/8x,1/2,2/3,3/4,4/5,5/6,6/7-5-3-1-7[8:5],7/8-6-4-2-8b[8:4],{1},
{24}1b/6,2,3,4,5,6,7,8,1,2,3,4,{4}5h[4:1]/6x,{24}4qq8[8:5],3,2,1,8,7,{4}6x,7-4b[8:1],7x/Cf,,{24}5/2b,6,7,8,1,2,3,4,5,6,7,8,{4}1h[4:1]/3x,{24}8-4[8:1],7,6,5,4,3,{4}2-6[8:1],7<4[8:1],7/3b-1[8:1]*-7[8:1],{4},{24}6/8b,1,2,3,4,5,6,7,8,1,2,3,{8}4h[4:1]/7x,7x,{24}A8,D1,A1,D2,A2,D3,A3,D4,A4,D5,A5,D6,{4}A6,1s5[8:1]/8z4[8:1],1x/8x,{24}2/6,1,8,7,6,5,2,1,8,7,6,5,{4}4/3hx[4:1],{24}7,8,1,2,3,4,7,8,1,2,3,4,{8}5/6x,5x/6x,4/7-3[8:1],,{4}Cf,
{24}1/2b,8,7,6,5,4,3,2,1,8,7,6,{4}4x/5h[4:1],{24}6qq1b[8:5],7,8,1,2,3,{4}4x,2-5[8:1],2x/Cf,,{24}4/7b,3,2,1,8,7,6,5,4,3,2,1,{4}6x/8h[4:1],{24}1-6[8:1],2,3,4,5,6,{4}7-3[8:1],5-1[8:1],5b>2[8:1]*<8[8:1],{4},{24}1b/3,8,7,6,5,4,3,2,1,8,7,6,{8}5h[4:1]/3x,3x,{24}A4,D5,,D6,A6,D7,A7,D8,A8,D1,A1,D2,{4}A2,3V57[8:1]/4v6[8:1],3x/4x,{24}8,1,2,3,4,5,8-4[8:1],1,2,3,4,5,{4}8b/6hx[4:1],{24}3x,2,1,8,7,6,{1}5w1[2:1],
{1}1-6-2-5[2:3]*-4-8-5[2:3],,{4}4/2-8[8:1],{16}2-4[8:1],5,,5,{8}2x,6,5-1[8:1]/7-4[8:1],,5/7-2[8:1],,{16}7-3[8:1],3,,3,{8}7x,2,1>4[8:1]/4<7[8:1],,1/4,,{16}2-5[8:1],1,,1,{8}2x,8,4>1[8:1]/7<4[8:1],,4/7,,{16}6-1[8:1],8,,8,{8}6x,2,3-5[8:1]/4-8[8:1],,3-1[8:1]/4,,{16}3-6[8:1],7,,7,{8}3x,8,1>4[8:1]/7,,1-5[8:1]/6,{16},7,1<6[8:1],,,8,{2}1b,
{16}3h[8:1]/4h[8:1],,,2h[8:1]/5h[8:1],,,1/6,,E5/E4f/E3/B5/B4/B3/B2,,,8h[16:3],,,7,7,6h[8:1]/5h[8:1],,,7h[8:1]/4h[8:1],,,8/3,,E5/E6f/E7/B4/B5/B6/B7,,,1h[16:3],,,2,2,3xv5[8:1],,,6,,,7,7,4x>1[8:1],,,8,,,6,6,5/7<4[8:1],,,3,,,2,2,{2}1v4b[8:1]*v6[8:1],{4}3x/7-4[8:1],1-5[8:1]/7,1/8-4[8:1],8/2-6[8:1],{8}7-3[8:1]/2,7,1-5[8:1],1,8-4[8:1],8,3,3,{16}5,4,5,4,6,3,6,3,5,4,7,2,6,3,8,1,{4}7xp2v5[8:4],1v2-4b[4:1],{2},
{16}7h[16:3]/8bx,,,5h[16:3],,,2x,,{24}4b-8[8:1]/1b-5[8:1],3/8,2/7,{8}1/6,,,{24}1bx/7bx,2/6,3/5,{8}4,{24}8bxw4[8:1]/2bx,7/3,6/4,{8}5,{16},Cf,,,{4},{24}2bx/6bx,3/7,4/8,{8}1/5,{24}1bxV36[4:1]/5bxV72[4:1],4/8,3/7,{8}2/6,{2},{16}1/2,,{16}3,5,4,6,3,,7/8,,6,5,7,4,6,,3h[8:3]/4bx,,,2,,,8,,{24}1b/2bv7[8:1],3/8,4/7,{8}5/6,6h[8:1],,{32}1/6bx,5,4,,,,1/6bx,5,4,,,,{8}1/6x,3b/4b,2,1,8,{16}5/7,,6,6,4,,{4}3/5pp1[2:1],{8}2,{16}2h[8:1],,,3h[8:1],,,4h[8:1],,,5h[8:1]
,,,{8}4b/6b,3,1/8,7,
{24}A2/B2/5hx[2:1],E2,A1/B1,E1,A8/B8,E8,A7/B7,E7,A6/B6,E6,,E5,{16}A4f/B4,,,D2/A2/D3/E2/E3,,,D6/D7/A6/E6/E7,,4h[8:1]/8h[8:1],,,1h[8:1]/6h[8:1],,,3/5,,{2}4bv6[8:1]/7bV53[8:1],{24}1bx/2bx,3/8,4/7,{8}5/6,{24}8bx/7bx,6/1,5/2,{8}4h[4:1]/3,{24}A3,D3,A2,D2,A1,D1,A8,D8,A7,D7,,,
{16}1/2,,3,4,2,5,3,,7/8,,6,4,5,3,6,2,7bx<4[8:1],,,8,7,,1,,2/3>8[8:1],,,,4/3bx,,,5,,,6/7,,{4}7/8v5[8:1],{16}6/8bx,,,7,,,8,,{1}1/5bx<4[2:1]
,{16}A7,E8,E1,A1,A5,E6,E7,A7,A3,E4,E5,A5,A1,E2,E3,A3,
{8}E7h[2:3],,,B7h[8:9],,,B6h[4:3],,{1},{8}E3h[2:3],,,B3h[8:9],,,B2h[4:3],,{1},{8}E7h[2:7]/E3h[2:7],,,B3h[8:25],,,B7h[8:22],,,B2h[8:19],,,B6h[8:16],,,,C,,,C,,,C,,{1},
{4}4h[8:1]/5<8[8:1],4h[8:1]/5,4h[8:1]/1-5[8:1],4h[8:1]/1,6h[8:1]/2>5[8:1],6h[8:1]/2,6h[8:1]/7-3[8:1],6h[8:1]/7,{8}2h[8:1]/5,4,3h[8:1]/6,7,4h[8:1]/8-5[8:1]*v6[8:1],1,8,,7h[8:1]/4,5,6h[8:1]/3,2,5h[8:1]/1^2-4[8:1]*v3[8:1],8,1,,{8}7/8x,1/6-1[8:1],2,3/6x,4-8[8:1],3,4x/7-3[8:1],6,7x/8,1-5[8:1],2,1x/5,6-1[8:1],7,4/6x,3,{16}3b,4,2,6b,5,7,1b,8,2,{32}7b,6,5,4,3,2,7bx,6x,5x,4x,3x,2x,1x,8x,{4}7hx[2:1]/6hb[1:1],,,,
{48}A1,B1,D1,E1,A8,B8,D8,E8,A7,E7,D7,B7,A6,B6,D6,E6,A5,B5,D5,E5,A4,B4,D4,E4,{24}A7,A8,E7,E1,A6,A1,E6,E2,A5,A2,E5,E3,A4,A3,E4,D3,D5,B5,B2,D6,D2,B6,B1,D7,{4}D1f,C/B4/B5/E5/A4/A5/D5,{24}2b,3,4,5,6,7,8,1,2,3,4,5,6/B8/E8,7,8,1,2,3,4,5,6,7,8,1,2/Cf,3,4,5,6,7,8,1,2,3,4,5,6/E4/B4,7,8,1,2,3,4,5,6,7,8,1,{16}2h[16:3]/4,,,6h[16:3],,,4h[8:1],,{48}A1,B1,D1,E1,A8,B8,D8,E8,A7,E7,D7,B7,A6,B6,D6,E6,A5,B5,D5,E5,A4,B4,D4,E4,A3,B3,D3,E3,A2,B2,D2,E2,A1,B1,D1,E1,A8,B8,D8,E8,A7,E7,D7,B7,A6,B6,D6,E6,{8}Chf[8:1],,{4},{8}1b/2b,8-4[8:1],7,3-8[8:1]/8b,2,3/5,6b<3[8:3],,{8},,,C,E3/E4,E5,E6/E7,,
{2}1h[4:1]/8h[4:1],{32}1h[32:3]/2b,3,4,5,,,7b/8h[32:3],6,5,4,,,{32}8bv7[8:1]/3bv2[8:1],4bx/7bx,5bx/6bx,,{8},,,1/6,3-8[8:1]/4-7[8:1],,3x/4x,,
{24}1b/6,2,3,4,5,6,7,8,1,2,3,4,5/2b,6,7,8,1,2,3,4,5,6,7,8,1/6b,5,4,3,2,1,8,7,6,5,4,3,2/7b,1,8,7,6,5,4,3,2,1,8,7,{2}6/1bs5[8:1],3bV17V53[2:1]/6bV82V46[2:1],,{4}4-8[8:1]/5-1[8:1],4x/5x,{8}7b/2,8-4[8:1],1,6/8b,7-3[8:1],8,7b/3<3[8:3],,,,,7x,{2}1b/5b,
{16}1/2,,,3/8,,,5/6,5/6,4/7,,,1/6,,,3/4,3/4,2/5,,,3/8,,,6/7,,{2}5b-2[8:1]/8b-3[8:1],{16}8/7,,,6/1,,,4/3,4/3,5/2,,,8/3,,,6/5,6/5,7/4,,,6/1,,,3/2,,{8}1b/4b,E6,E7,E8,{16}2,2,1,1,4,4,5,5,{2}8v2-5b[8:1],{16}7,7,1,1,5,5,4,4,{2}8v6-4b[8:1],{16}2b,1,3,7b,8,6,3b,4,2,6b,5,7,{64}2hbx[64:1],E2,1hbx[64:1],E1,8hbx[64:1],E8,7hbx[64:1],E7,6hbx[64:1],E6,5hbx[64:1],E5,4hbx[64:1],E4,3hbx[64:1],E3,Ch[1:1],,
