&title=しゃにむに
&artist=ど〜ぱみん; 重音テト
&first=0
&des=カンナカム
&lv_5=13+
&inote_5=(132)
{16},,,,
,,,,
,,,,
,,,,
{16},,,,
,,,,
4s8b[16:2],,,,
,,,,
{16}5b,,,,
3/4-1[16:2],,5,,
4/6,,,,
7/8,,6,,
{16}4/7,,5,,
{24}6/8,,,E7,B5,E4,
{16}1-4[16:2],,84,,
5,,,,
{16}A1f/E1/E2,,,,
3/5-8[16:2],,4,,
5/6,,,,
2/5,,3,,
{16}45,,3,,
{24}1/2,,,3x,4,5,
{16}6>3[16:2],,8bxh[16:2],,
,,,,
{16}7b/E1/B1f,,,,
6/5-8[16:2],,4,,
5/3,,,,
2/1,,3,,
{16}5/2,,4,,
{24}3/1,,,E3,B4,E6,
{16}8-5[16:2],,15,,
4,,,,
{16}A8f/E1/E8,,,,
6/4-1[16:2],,5,,
4/3,,,,
7/4,,6,,
{16}3/5,,6,,
{24}7/8,,,6x,5,4,
{16}3,,1,,
2x<7[16:2],4x,2x,4x>1pp8<5b[16:20],
{16}2bx,,,,
,,,,
,,,,
,,E5hf[128:1],,
{16},,,,
,,,,
{24},,,3x,5x,2x,
{16}4x-6[16:2],,,,
{16}1-5[16:2],,2,,
1<6[16:2],,8,,
4,,3,,
2,,5,,
{16}3/4>1[16:2],,5,,
4/7,,,,
6/5<8[16:2],,4,,
5/1,,,,
{16}2h[16:3],,,4,
3,,5h[16:2],,
4,,6,,
3/4,,E1hf[128:1],,
{16}7h[16:3],,,5,
6,,4h[16:2],,
5,,2/4,,
7/5-3[16:2],,,,
{16}8-4[16:2],,7,,
8>3[16:2],,1,,
5,,6,,
7,,4,,
{24}5/6,,,7,6,5,
{16}4,,1/2,,
3/8h,,4/8h,,
5/8h,,6/8h,,
{16}8b<2b[16:16],,,,
,,,,
,,,,
C,,,,
{16},,,,
,,1,,
1h[16:8],,,,
3<6[16:2],,,,
{16}3-5<4-6b[16:16],,,,
,,,,
,,,,
C,,,,
{16},,,,
,,8,,
8h[16:4],,,,
5>1[16:8],,,,
{16}8,,8,,
7,,7,,
6,,6,,
5/B8,,5h,,
{16}1,,1,,
2/4,,2,,
3-7[16:2]/5x-1[16:2],,3x/5x,,
,,,,
{16}2,6,3,5,
1,7,2,6,
1,7,3,5,
4,6,2,8,
{16}1b-5[16:2],,,,
1b<6[16:2],,8,,
{24}4b,,,3bx,5bx,2bx,
{16}4bx-8b[16:2],,,,
{16}1v6[16:2]/4v6[16:2],,,,
1/4,,,,
7x-4[16:2],,3-8[16:2],,
7,,3<6[16:2],,
{16},,8>3<6b[16:4],,
,,8bx,,
,,7x,,
8-4[16:2],,,,
{16}2-5[16:2],,1,,
6-2[16:2],,,,
4-1[16:2],,3,,
7-3[16:2],,,,
{16}2>5[16:2],,1,,
7>2[16:2],,6x,,
{24}4x,,,3x,4x,5x,
{16}6x-2b[16:2],,,,
{16}6bv3[16:2]/8v3[16:2],,,,
6/8,,,,
5x-8[16:2],,2-5[16:2],,
5,,2b,,
{16},,1x-6[16:2]/6x-2[16:2],,
,,1b/6b,,
,,5x,,
4-7[16:2],,,,
{16}1/4,,3x,,
5b-2[16:2],,,,
8/5,,6x,,
4bpp4pp4[16:8],,,,
{16}E2,,,,
,,,,
2x<8[16:2],,8x<6[16:2],,
6b<4[16:4],,,,
{16}4b,,,,
E8,,,,
6,,,6x,
E2,,4,,
{16}1/3b-5[32:3],,,,
8,,8,,
2,,6,5,
7-3[8:1]*-4[8:1],,,,
{16}7b,,,,
E2,,,,
3,,,3x,
E8,,5,,
{16}8/6b-4[32:3],,,,
1,,1,,
7x,,3,4,
2q6b[16:2],,,,
{16}2b,,,,
{24}7x,,7,8,,8,
6,,6,3,,3,
4-7b[16:2],,4,2,,2,
{16}4b,,,,
{24}3x,,3,1,,1,
4,,4,5,,5,
7x-3b[16:2],8x,1x,2x,3x,4,
{16}7b/5xh[16:4],,,,
{24}2x,,2,4,,4,
8,,8,1,,1,
7,,7,5x,,5p8>1p4b[24:13],
{16}6h[16:12],,,,
,,,,
,,,,
,,,,
{16}6xb<4[16:8],,,,
,,,,
,,,,
,,,,
{16}5qq6[16:8],,,,
,,,,
,,,,
,,,,
{16}1-5[16:2],,1,,
{32}5x,6x,7x,8x,,,,,
{16}1-5[16:2],,1,,
{32}5x,4x,3x,2x,,,,,
{16}1-5b[16:2],,1,,
{32}5bxpp6>3b[16:6],6bx,7bx,8bx,,,,,
{16},,,,
,,,,
{16}2bxh[16:3],,,4,
3,,4/5,,
5/6,,7,,
1/8,,2,,
{16}3qq4[16:4],,,,
4<2[16:4],,,,
,,,,
C,,,,
{16}7h[16:3],,,5,
6,,4/5,,
3,,1/2,,
8/1>8[16:10],,7/8q1[16:8],,
{16}Cf,,,,
,,,,
,,,,
,,,,
{16}2h[16:2],,,2,
,,,,
4h[16:2],,,4,
,,,,
{16}5h[16:2],,,5-8[16:2],
,,,,
2-6-4[16:4],,,,
,,,,
{16}7h[16:2],,,7,
,,,,
5h[16:2],,,5,
,,,,
{16}4h[16:2],,,4-1[16:2],
,,,,
7-3-5-8[16:6],,,,
,,,,
{16}1xh[16:1],,2h[16:1],,
3h[16:1],,4h[16:1],,
5h[16:1],,6h[16:1],,
7h[16:1],,8h[16:1],,
{16}8xh[16:1]/B6,,7h[16:1],,
6h[16:1],,5h[16:1],,
4h[16:1],,3h[16:1],,
2h[16:1],,1h[16:1],,
{16}1xh[16:1]/B3,,5h[16:1],,
4xh[16:1]/6h[16:1],,8h[16:1],,
8xh[16:1]/B6,,4h[16:1],,
5xh[16:1]/3h[16:1],,1h[16:1],,
{16}1b-5[16:2],,,,
1b>7[16:4],,8,,
1b,,,,
,,,,
{16}7bx/3bxh[16:4],,,,
{32}A6f,E6f,E5f,A4f,,,,,
{16}1bx-6b[16:2]/2bx-6b[16:2],,,,
,,,,
{16}4bx,,,3bx/5bx,
,,2bx/6bx<1b[16:2],,
6bx/2b>5b[16:2],,,,
,,,,
{16}7b-4[16:2],,6,,
3-7[16:2],,2,,
5-8[16:2],,4,,
2-6[16:2],,1,,
{16}7<4[16:2],,8,,
2<7[16:2],,3,,
{24}5x,,,6x,5x,4x,
{16}3x-7b[16:2],,,,
{16}8bx>3[16:2]/3<6[16:2],,,,
8/3,,,,
5x-1[16:2],,3<6[16:2],,
5,,3b,,
{16},,1x<6[16:2]/6x>3[16:2],,
,,1b/6b,,
,,5x,,
4x-1[16:2],,1,,
{16}4,,3x,,
5b-8[16:2],,8,,
5,,6x,,
4bpp4pp4[16:8],,1,,
{16}E3,,,,
,,,,
2x<8[16:2],,8x<6[16:2],,
6b<4b[16:4],,,,
{16}4b,,,,
7<4[16:2],,,,
4q8[16:2],,3,,
2>5[16:2],,1,,
{16}5p1[16:2],,6,,
7<4[16:2],,8,,
3p6b[16:2],,2<7b[16:2],,
,,,,
{16}5b,,,,
2>5[16:2],,,,
6-2[16:2],,7,,
8<5[16:2],,1,,
{16}3-7[16:2],,2,,
1>4[16:2],,8,,
6x-1b[16:2],,8x-4b[16:2],,
,,,,
{16}2bx-5b[8:1],,,,
1b<4[16:4],,,,
4V26[8:2],,3,,2
,,1b-5b[16:2],,
{16},,1bx<6[16:2]/6bx>3[16:2],,
,,6b/1b,,
,,5x,,
4x-7b[16:2],,,,
{16}1x-4b[16:2],,2,,
1b/5-2b[16:2],,6,,
8-5b[16:2],,7,,
8b/2xqq8qq6qq4b[16:8],,1,,
{16},,,,
,,,,
7b-3b[16:2],,,,
7b/1,,,,
{16}8x>3qq4[16:8]`4x<7qq8b[16:8],,,,
,,,,
,,,,
,,,,
{16},,,,
,,,,
,,,,
{24}3/7,,3,5,,5,
{16}1b,,,,
1>4[16:2]/6<1[16:2],,4V62[16:4],,
1/6,,,,
1x,,7,,
{16}3,,5,,
{24}7/8,,,E7,B5,E4,
{16}1>4<7[16:4],,8/4<7[16:2],,
5,,,,
{16}A1f/E1/E2,,,,
8<5[16:2]/3>8[16:2],,5V37[16:4],,
8/3,,,,
8x,,2,,
{16}6<1[16:2],,4,,
{24}2,,,2,3,4,
{16}5/6x
,,8xh[16:4],,
{24}6x-2[16:2],5x,4x,3x,2x,1x,
{16}8b/6,,,,
1>4[16:2]/4<7[16:2],,7qq8b[16:4],,
1/4qq5b[16:4],,,,
,,,,
{16}1bx-5[16:2],,,,
1bxw5[16:2],,,,
1xpp8b[16:4],,,,
,,,,
{16},,,,
,,,,
,,,,
,,,,
