&title=Unsigned Amalgam
&artist=Kyotsugyon
&first=0.08
&lv_2=15+
&des_2=↓
&inote_2=
(263.25){4},,,,,,,,{1}4b/5b,
{2},,5h[2:1],
{8}4h[8:3],,,3h[8:3],
,,{4}2h[4:1],{6}1h[6:1],8h[6:1],7h[6:1],
6h[6:1],5h[6:1],4h[6:1],{24}3h[8:1],,,2h[8:1],,,{8}1h[8:1],8h[8:1],
7h[8:1],6h[8:1],5h[8:1],4h[8:1],3h[8:1],2h[8:1],1h[8:1],8h[8:1],
{6}7h[6:1],6h[6:1],5h[6:1],4h[5:1],{30},{10}3h[8:1],{40},2h[40:47],{1},{16},,{64},{320},,,{1}6h[2:3],
{8},,,,1h[8:3],,,5h[8:3],
,,{4}3h[8:3],{8},7h[8:3],,,1,
8,{4}1h[4:3],{20},,,,,,,,,,{5}8h[5:1],
7h[5:1],{10}6h[10:1],5h[5:1],,4h[16:3],{80},,,,,,,3h[80:9],,,,,,,,,{16}2h[16:3],
,,1h[16:3],,,{8}8h[8:1],7h[8:1],6h[8:1],5h[8:1],4h[8:1],
{12}3h[12:1],2h[12:1],1h[12:1],8h[12:1],7h[12:1],6h[12:1],5h[12:1],4h[12:1],3h[12:1],{48}2h[16:1],,,1h[16:1],,,{16}8h[16:1],7h[16:1],
{2}6b,1-4b[0.4558##0.114]/2V46[0.4558##0.2279],
{8}2b/1b,,,,,7,8,8,
{40}1/6-4[0.1595##0.0912],,,,,,,2,,,,,,,{20}8-3[0.1823##0.0912]*-5[0.3647##0.1254]/7V53[0.3647##0.2393],,,,6,,,,{4}7b/8b,
{8},,,2,{44}1,,,,,2,{176},,,,,,,,,{16}8,{8}3-5[0.1823##0.0912],{40}7,,A4,,,,,,,,{8}2/1-6[0.1823##0.0912],
{40},,,3,,,,,,,,1/2-5[0.1823##0.0912],{80},,,,,,,,,,,{16}2,{8}8,8h[4:1],
,2,6,4h[4:1],,5,{4}6/3-8[8:1],
{8}7,6,5,4/1-3[0.1823##0.0912],,,{4}8/4-6[0.1823##0.0912],
{8},7/1,{16}7,8,1,2,4-1b[0.3419##0.114]/3V17[0.3419##0.2279],5,6,7,1,2,{8}3b/4b,
,,,,6,5,5,4/7-1[0.1595##0.0912],
{40},,{20}3,{40},,,,,5-2[0.1823##0.0912]*-8[0.3647##0.1254]/6V82[0.3647##0.2393],,,,,,,,7,,,,,,,,{8}6b/5b,,,,,3,
{88}4,,,,,,,,,,3,{176},,,,,,,,,,,{16}5,{8}2-8[0.1823##0.0912],{20}6,A1,,,,{5}3/4-7[0.1823##0.0912],
2,{80}4/3-8[0.1823##0.0912],,,,,,,,,,,,,3,,,,,{8}5,{4}5h[4:1],
{8}3,7,{4}1h[4:1],{8}8,7/2-5[8:1],,6,
7,8,{4}1/4-2[0.1823##0.0912],{8},5/1-7[0.1823##0.0912],,,(175.5)4/6,
{16}3,2,1,8,7/4,6,5,4,3,2,(234){4}7/1bpp2[0.5128##0.3205],
5/3h[4:3],1,{40},,,,,,,,,,8qq7[0.373##0.2564],,,,,,,4/6h[40:23],{16},,{64},,{1760},,,,,,,,,,,,,{44}8b,
{4},{16},{64},,,{704},,,{8}2,2,{4}7/1bpp2[0.5128##0.3205],
5/3h[4:3],1,{44},,,,,,,,,,,8qq6<7[0.373##0.2564],,,,,,,,4/6h[44:25],,,,,,,,8b,
,,,,,,,,,,,,,,,,{4}4bqq3[0.5128##0.3205],8/2h[4:3],
{2}4,{22}5pp6[0.373##0.2564],,,,1/7h[44:25],,,,5b,{44},,,,,,,,,,,,,,,3,
,,,4,,,,5,,,,4,,,,6/2,,,,,,,,5,,,,4,,,,3qq2[0.3963##0.2098]/7qq6[0.3963##0.2098],
,,,4,,,,5,,,,,,,,,{11}3b/7b,{44},,,,,,,,,,,,,{4}2/8bqq7[0.5128##0.3205],
4/6h[4:3],8,{44},,,,,,,,,,,1pp2[0.373##0.2564],,,,,,,,5/3h[44:25],,,,,,,,1b,
{4},{16},{64},,,{704},,,{8}7,7,{4}2/8bqq7[0.5128##0.3205],
4/6h[4:3],8,{44},,,,,,,,,,,1pp3>2[0.373##0.2564],,,,,,,,5/3h[44:25],,,,,,,,1b,
,,,,,,,,,,,,,,,,{4}5bpp6[0.5128##0.3205],1/7h[4:3],
{2}5,{22}4qq3[0.373##0.2424],,6,,2h[22:13],,,,4b,,,,,,,,,{11}6,
6,4,5,2/7,4,5,3,
6pp8<7[0.373##0.2506]/2v4>3[0.373##0.2506],5,4,,6b/2b,{44},,,,,,,,,,,,,{4}5b/1b-3[8:1],
1b/4b-8[8:1],{8}4b/1bv6[8:1],1,2b-4<5[8:1],2,{40}8b,,,,,,,7b,,,,,,,{10}6b-1[0.4103##0.0962],
{40},,,5b,{16},,,{80},(312){32}4b/6b,E7f,,,,,,,{8}2-6[8:1],1,
{4}2b/8b-5[8:1],{8}8,1b-4[8:1],,1/6,6,7-3[8:1],
8,7b/1b>4[8:1],,1b<6[8:1],,1b-4[8:1],,1b,
{16}7b-4[0.1399##0.0699],,,3b-8[0.1442##0.0769],,,{8}6b-1[0.1442##0.0769],{16},2b-5[0.1442##0.0865],,,(208){4}B4f/7bV53[16:3],
{8}8/7,1bV75[6:1],{24},,,1/2,,3b,,,,{8}3b,{88}2b-5[0.2229##0.118]/6b-1[0.2229##0.118],,,,,,,,,,,,,,,,,2b/6b,,,,,,,,,,,,,,,,{8}3b/7b,
4/8,1/5,{16}6/2-5[12:1]*-4[12:1],,,8b,{48},,,,,,{24}8b-6[0.2885##0.1442],,1b-5[0.3846##0.1442],
,,,{8}8b-4[0.4327##0.1082],{20},1-3[0.3389##0.1082],{16},,{64},{320},,,(277.33){32}8bw4[8:1],B4f,,,{8}1b,{4}8b,
2bV46[4:1],{8}2/1,8b-2[8:1],,7/8,6b,5/4,
3b,1/2V46[4:1],,6b-2[8:1],,7bV53[4:1],,7,
{16}3b-7[8:1],,,1b,,,1b,2b,3b,4b,5b,6b,{8}7b/1b-4[8:1],8b-5[8:1],
{32}1b,E4f,,,8b,E6f,,,,,,,{8}3b-6[8:1],7b-2-5[4:1],3b,{4}7b,
{8},4b-1[8:1],5b-8[8:1],{32}4b,E2f,,,5b,E8f,,,,,,,,,,,{8}2b-6[8:1],
6bw2[8:1],2b,{32}A6f,B6f,Cf,B2f,{8}A2f,{4}7b/4b-8[8:1],{8}4,6b-2[8:1],
,6,{4}1b-5[8:1],1,{16}7bq3[0.3245##0.1082],,,1b>3[0.3245##0.1082],
,,{8}7b<5[0.3245##0.1082],{16},1bp5[0.3245##0.1082],,,7b,,,1b,,,(303.11){8}4b-8-6[4:1],
,4,{4}A8f/3bV15[4:1],3,{8}6,7b/2b-5[0.1485##0.099],
{16},2b/7b,,,{4}1b-5-7[4:1],{8}1,A5f/2bV48[4:1],,2,
,7,{16}3b-5[0.1485##0.099]/6b-4[0.1485##0.099],,,3b/6b,,,{8}7b/1b,,6/2,
{40},,,7b/3b,,,,,,,{8}2/6,2b/6b,{16},2b-4[0.1485##0.099]/6b-8[0.1485##0.099],,,{4}E3f/E7,
{8}1b/5b,{32}5b,,,4b,,,{16}3b,{32},2b,,,1b/5b,,,8b,,,{16}7b,{32},6b,,,5b/1b,,,4b,
,,{16}3b,{32},2b,{96},,,,,,(152.03){12}Cf/1b-4[0.2631##0.1316],,1b/5b-8[0.2631##0.1315],,5b/2b-7[0.2631##0.1316],,2b/6b-3[0.2631##0.1316],,6b/1b-5-2-4[0.2631##0.3947],
,7b,7b,7b,{48},,,,,{16}8b-5[16:1],5b-7[16:1],,,8b,{8}4b-1[8:1],1bV37[16:3],
4b,7b-2>4[16:3],{4}Cf/1b-5<7[16:3],1,{16}3,3,5,4,
6,6,8,7,1b-4[8:1],,,7b,1b-6[8:1],5b,{8}5b,1b>3[12:1]*>5[6:1],4b<7[8:1],
{16},,,,8bv6[8:1],,,8b/1bV35[8:1],,,{8}1bV75[8:1],{16},1b,,,{8}4b-2[8:1],
3/5,{16}1b/4b-7[8:1],,,4,1b-5[8:1],,,8v3[8:1],{8}1b,8b-2[8:1],
2b-4[8:1],8b/7b,{4}A2f/5bv7[8:1],5b/4bV28>1V35[8:3],{16}4b,6v7-5[16:3],,,{4}6b,
{16}2,2,8,1,7,7,5,6,{8}5b-1[16:1]/6b-8[16:1],1/8-4[16:1],
{4}6/5,(304.06){24}8b/1bv3[1:13],2/7,3/6,5/4,{1},,{4},,,{16},,,{48},{8}E4f,
{1},,,{4},{8},E6f,
{1},,,E8f,
,,{4},,{32}B1f/E2fh[1:4],
B2f,{1},,,{4},,,{16},,,{2}4-2[3.1573##2.368],
,,,,,,,3-1[3.1573##2.368],
,,,,,,,2-8[3.1573##12.2344],
{4},,,,,,,,,,,,,,,5,
{8}4,,,5,,,{4}5,
4,,,5,
{8}4,,,5,,,{4}5,
4,,,5,
{8}4,,,5,,,{4}5,
4,,,5,
{8}4,,,5,,,{4}5,
{2}4,{4}3,5,
{8}4,,,5,{4}3,5,
{2}4,{4}3,5,
{8}4,,,5,{4}3,5,
{2}4,{8}3,3,4,4,
{4}3,{8}4,3,,5,{4}4,
{8}6,5,,7,{4}6,{8}2,1,
,3,{4}2,{8}4,3,,5,
{2}4-1[0.3947##0.1973]*-7[0.3947##0.1973],4bqq6[0.3947##0.7893],
,,5-8[0.3947##0.1973]*-2[0.3947##0.1973],
5bpp3[0.3947##0.7893],
{4},,,{16},,{1496}A1f,,,,D2f,,,,A2f,,,,D3f,,,,A3f,,,,D4f,,,,A4f,{16},,{64},,{5984},,,,,,,,,,,,,,,,,,,,,,,,,,,,,,,,,,,,,,,,,,,,,,,,,,,,,,,,,,,,,,,,,,,,,,,,,,,,,,,,,,,,,,,{2992}A8f,
,,,,,,,D8f,,,,,,,,A7f,,,,,,,,D7f,,,,,,,,A6f,,,,,,,,D6f,,,,,,,,A5f,{16},,{64},,{5984},,,,,,,,,,,,,,,,,,,,,,,,,,,,,,,,,,,,,,,,,,,,,,,,,,,,,,,,,,,,,,,,,,,,,,,,,,,,,,,,,,,,,,,,,{4}1b-4b[8:1],1b,{8}7b,7b,
8b,8b,{16}7b-5b[0.148##0.0493],,,1b-5b[0.148##0.0493],,,{8}8b-4b[0.148##0.0493],{16},2b-4b[0.148##0.074],,,(202.75){8}7b,
{16}1b,8b-5b[0.2219##0.148],{8}2b-5b[0.2219##0.148],{16}8b,2b,,7b,{32}1b-5b[0.2219##0.148],2b,3b,4b,5b,6b,{16}7b,,8b,
,2b-5b[0.2219##0.111],,6b,{32}2b,,,E7f/B7f,,,{16}E3f/B3f,{32},E1f/B1f,,,(270.3){8}E5f/B5f,,2b,
{4}1b/2b-4b[8:1]*-5b[8:1],2b,{8}1b/7b,3b/5b,{16},2b,,,{8}8b/7b,
8b-4b[8:1]/7bV51b[16:5],8b/7b,{16}8b/7b,Cf,,2b,,,{4}2b,
{16}1b/8b,2b,3b,4b/5b,6b,7b,(360.4){8}1b/8b,,2b-7b[8:1],,2b,
,5b,{4}5b/1b,{8}7b,6b,5b,{24}3b,2b,1b,
8b/7b,6b,5b,4b,,,,,,{8}3b-5b[8:1],,,{4}7b-4b[8:1],
{8},2b-6b[8:1],,,8b-4b[0.1665##0.0832],,,(240.27)1b/A4f,
,3b/7b,3b/7b,{24}3b/7b,,8b,,1b,{48},,{16}2b/6b,7b,8b-5b[8:1],1b,2b,3b,
{8}E6f/4b>1b[8:1],4bv7b[8:1],A3f,B4f,,6bq2b[8:1],1b>8b[4:1],6b,
{16}E2f,,,D7f,,,{8}1b>4b[8:1],,1b,{4}8bq5b[8:1],
{8}8b,4bq1b[8:1]*<8b[8:1],{16},,B5f,D7f,,,{8}2b>5b[0.1873##0.1249],{16},5bp1b[0.1873##0.1249],,,1b<6b[0.1873##0.1249],
,,6bp2v5b[0.1873##0.2497],,,,,,Cf,,,(320.36){4}1b<8-6b[8:1],
{8}2b,2bv4b[8:1],{12}3b,2b,1b,8b,7b,6b,5b/1b,{48},,,,,{16}1b,
,,{8}2b/6b,{16},2b/6b,,,(213.57){8}3b/7b,2b/6b,5b/1b,4b/8bV24b[16:3],
,4b,6b,8b,{16}2b-5b[0.2107##0.1405]/1b-6b[0.2107##0.1405],,,2b/1b,{8}Cf,(284.76)3b/7b,
{16},6b/2b,,,1b/5b,,,4b/8b,,,{8}3b/7b,{16},2b/6b,{32},,,,5b,
,,4b,,,{16}6b,{32},3b,,,7b,,,2b,,,{16}8b,{32},1b,,,{16}8b,1b,2b,3b,
4b,5b,6b/8b,1b,2b,3b,4b,5b,(126.56){6}B8f/6bqq3pp6b[12:19],,3,
2,1,8,7,{12},{4}1,
{8}8,2,7,1,{16}8,8,1,1,7,7,2,2,
6,6,3,3,5,5,4,4,5,4,5,4,6,3,6,3,
7>2[8:1]*>8>1>2[8:1],2,7,2,{4}A7f/A6/B6/E6/D6/A5/B5/D5/E5/E7/B4/D4/E4/A3/B3/C/D8/E8/B7/A4/D7,{16}2b,5,4,6b,1,8,3b,6,
5,7b,2,1,3b,7,1b,1,7b,4,5,3b,8b,1,6,3b,
4b,2,7b,8,6b,2,8b,4,(168.75){24}7/3b,6,5,4,3,2,8b,7,6,5,4,3,
2/1b,8,7,6,5,4,2b,1,8,7,6,5,{32}4/1b,2,3,4,5,6,7,8,A1f,A2f,A3f,A4f,A5f,A6f,A7f,A8f,
D1f,D2f,D3f,D4f,D5f,D6f,D7f,D8f,E1f,E2f,E3f,E4f,E5f,E6f,E7f,E8f,{96}1b/E1f,8bx,
E
