&title=[X] (Long ver)
&artist=Blacklolita
&first=0.39
&des=sNeoE_a
&des_5=sNeoE_a
&lv_5=13+
&inote_5=(162){4}Ch[1:1],,,,{2}8b,
1h[4:5]/7h[4:3],
,3h[4:3],
5h[4:5],7h[4:3],
,Ch[2:1],
8b,1h[4:3]/7h[4:9],
,2h[4:1],
{1}3h[4:3],
B7/C/B3,
{8}4bh[4:1]/8bh[4:1],{16},,,,3,7,{2}6h[4:3]/2-6-1-5[2:1],
,4h[4:1]/7h[4:3],
{8}3h[4:1],{16},,,,6,2,{2}5h[4:3]/1-5-8-4[2:1],
,Ch[4:5],
{4}8,7,6,5<8[8:1],
{8}1,1,1,1,1/8,1/8,1/8,1/8,
{16}1b,7,1,7,2,6,2,6,3,5,4,6,3,7,2,8,
{4}1bV37[4:1],{8}7,8,{4}1w5b[8:1],Cf,
3b/7b,{8}8/3,8,7/3,6,5/3-1[8:1],2,
3/4,5,{4}3/4,{8}7/3,6,3/5-1[8:1],4,
{4}5/3,{8}3/8,7,3,6,3,4,
{4}3/6<3[4:1],{8}3,4,{4}5b-1[8:1],{128}8x,Cf,{16},,,{64},,,{4}3/7,
{8}4/6,5,4/6,3-5[8:1],2/6,3-7[8:1],
6,3,6,1,{4}6-1[8:1]/2-5[8:1],2x/6x,
8x/4x,{12}6,6,5,{6}4xh[12:1]/7xh[12:1],3xh[12:1]/6xh[12:1],2xh[12:1]/5xh[12:1],
{4}4b/1bs5[4:1],7-3[8:1],7b,1x/5x,
{8}2h[4:1]/6b-2<7[2:1],,,3,4,5,6,5,
{4}4-8[8:1]*>1[8:1],4,{8}7/5,6,2/4,3,
4/6>3[8:1],7,{4}6/2-6[8:1],2-4[8:1]/8-4[8:1],2/8,
{8}2x/6x,{16}8,1,8,1,8,1,{12}7,5,6,2,4,3,
{4}5-1[8:1],5/2-4[8:1],2/8-6[8:1],8/5-1[8:1],
5/2-6[8:1],2/8,7/5,4/3h[4:1],
{12}1b,1,1,3,4,2,6b,6,6,2,4,3,
8b,8,8,6,6,6,4b,4,4,2>2<4[8:29],,,{1}2b,
,Cfh[8:13],
{16},,,,,,,,,,,,,,,,2,
1,2,1,3V58[4:1],8,3,8,,,,,,,,,7,
8,7,8,6V41[4:1],1,6,1,,,,,,,,,2,
4,3,6,5,7,3,4,2,7,8,6,1,5,2,4,
{4}3s7[4:1],5-1[8:1],C,8x,
{6}1bh[12:1]/8bh[12:1],2bh[12:1]/7bh[12:1],{48},,,,,,,,7bxh/1bxh,6x/2x,{24}3x/5x,{48},,,,1bxh/7bxh,2x/6x,{24}3x/5x,{48},,,,,,,,,,,,{16}5,
4,6,3,7,2,{8}8,{48}8bxh/2bxh,3x/7x,{24}4x/6x,{48},,,,2bxh/8bxh,3x/7x,{24}4x/6x,,,,,,,{2}5h[48:35]/3bh[6:1],
{48}3bx,2x,{24}1x,{48},,,,8bx,1x,{24}2x,,,,,,,{8}6h[16:1]/1h[16:1],
6h[16:1]/2h[16:1],6h[16:1]/3h[16:1],6h[16:1]/4h[16:1],6h[16:1]/5h[16:1],6h[16:1],6h[16:1]/7h[16:1],6h[16:1]/8h[16:1],
{6}5bh[12:1]/1bh[12:1],2bh[12:1]/6bh[12:1],{48},,,,,,,,6bxh/2bxh,3x/7x,{24}4x/8x,{48},,,,6bxh/2bxh,3x/7x,{24}4x/8x,,,,,,,{2}4h[48:35]/6bh[6:1],
{48}6bx,7x,{24}8x,{48},,,,1bx,8x,{24}7x,,,,,,,{2}3bh[6:1]/5h[2:3],
{48}3bx,2x,{24}1x,{48},,,,8bx,1x,2x,3x-7-4-1-5-8[48:49],{1},{4}8x-5b[4:1]*-3[4:1],
{48},,,,,,,,,,,,,,,,6x,5x,,,,,,,3x,4x,,,,,,,7x,6x,,,,,,,2x,3x,,,,,,,7x,
6x,{24}5x,{48},,,,2x,3x,{24}4x,{48},,,,8x,7x,{8}6x,{48}1x-5[8:1],2x,{24}3x,,,,,{4}1xh[12:1],
{2}4h[48:35]/6bh[6:1],{48}6bx,7x,{24}8x,{48},,,,1bx,8x,{24}7x,{48},,,,,,,,,,,,{16}4,
5,3,6,2,7,{8}1,{48}7bxh/1bxh,6x/2x,{24}5x/3x,{48},,,,1bxh/7bxh,6x/2x,{24}5x/3x,,,,,,,{6}8bh[12:1]/1bh[12:1],
7bh[12:1]/2bh[12:1],{48},,,,,,,,2bxh/8bxh,3x/7x,{24}6x/4x,{48},,,,8bxh/2bxh,7x/3x,{24}6x/4x,,,,,,,{2}5h[48:35]/3bh[6:1],
{48}3bx,2x,{24}1x,{48},,,,8bx,1x,{24}2x,,,,,,,{2}6bh[6:1]/4h[2:3],
{4}7-3-6-1-5-8-4-1[4:5],7,
,,,1w5b[8:5],
,,,,6,
6,6,6,
{8}6,7,8/B4,1,2/B6,3,4/B8,5,
{4}6bV84V25[2:1],{8}3,2-6b[8:1],{64}1,,,,,,,,,,,,,,,,,D6f,,,,,,,,,,,,,,,{16}4b,
5,5,5,4,5,5,5,4,5,5,5,4,5,5,5,
3,5,5,5,3,5,5,5,3,5,5,5,3,5,5,5,
2,5,5,5,2,5,5,5,2,5,5,5,2,5,5,5,
{6}2h[12:1]/5h[12:1],3h[12:1]/6h[12:1],4h[12:1]/7h[12:1],{24}6x,5x,6x,5x,6x,5x,{4}6h[6:1]/4h[6:1],
{16}5b,4,4,4,5,4,4,4,5,4,4,4,5,4,4,4,
6,4,4,4,6,4,4,4,6,4,4,4,6,4,4,4,
7,4,4,4,7,4,4,4,7,4,4,4,7,4,4,4,
7h[16:1]/4h[16:1],,,5,4,4,4,3,4,2,4,1,4,8,4,7,
5b,6,6,6,5,6,6,6,5,6,6,6,5,6,6,6,
7,6,6,6,7,6,6,6,7,6,6,6,7,6,6,6,
1,6,6,6,1,6,6,6,1,6,6,6,1,6,6,6,
8,6,7,6,6,6,5,6,4,6,3,6,{8}2,B6/B2,
{16}5,4,4,4,5,4,4,4,5,4,4,4,5,4,4,4,
6,7,7,7,6,7,7,7,6,7,7,7,6,7,7,7,
1,2,2,2,1,2,2,2,1,2,2,2,1,2,2,2,
{4}3h[16:3]/8h[16:3],{8}3h[16:1]/8h[16:1],4h[16:1]/7h[16:1],5h[16:1]/6h[16:1],4h[16:1]/5h[16:1],3h[16:1]/6h[16:1],2h[16:1]/7h[16:1],
{6}8bh[12:1]/1bh[12:1],7bh[6:5]/2b-7-4-1-6-3-8-5[6:5],{12},,,,,,,,,,,,,,{4}A7/B7/D7/E7/A6/B6f/E6/B5/E5/B4/A4/D5/A5/D6,
1b,
{6}2bh[12:1]/1bh[12:1],3bh[6:5]/8b-3-6-1-4-7-2-5[6:5],{12},,,,,,,,,,,,,,{4}A2/B2/D3/E3/A3/B3/E4f/B4/E5/B5/A5/D5/A4/D4,
8b,
{6}7bh[12:1]/8bh[12:1],6bh[6:5]/1b-6-3-8-5-2-7-4b[6:5],{12},,,,,,,,,,,,,,{4}D7/E7/A6/B6/E6/B5f/E5/B4/A4/D5/A5/D6/E4/D4,
1b,
2-6[8:1]/8-4[8:1],2/8,{8}1/7,{16}2,4,{8}3,5/4,
8/2,{16}7,5,{8}6,4/5,3-5[8:1]/6-4[8:1],2/7,{4}6b/3b,
8-4[8:1]/1-5[8:1],1/8,2b/7b,{8}3h[16:1]/4h[16:1],5h[16:1]/4h[16:1],
5h[16:1]/6h[16:1],5h[16:1]/2h[16:1],8h[16:1]/4h[16:1],3h[16:1]/1h[16:1],{4}E6f/E5/D5/A5/B5/D6/A6/B6/E7/D7/A7/B7/E8/D8,{8}1,1,
2h[16:1]/8h[16:1],3h[16:1]/4h[16:1],7h[16:1]/1h[16:1],6h[16:1]/5h[16:1],{4}Cf,{12}1,1,1,
8,8,8,1,7,5,8,2,4,3,5,2,
{4}Cf,7-4[8:1]/1-4[8:1],1b/7b,{12}3/5,3/5,3/5,
4/6,4/6,4/6,3/7,3/7,3/7,{4}A8/B8/Cf/B4/A4/B6/A6/B2/A2,1xw5[8:1],
{8}1b,,,3/7,{4}3/7,{8}4,5,
6/4,2,8<5[8:1],1>4[8:1],8v5[8:1],1v4[8:1],8,1,
{2}8b,1/7h[1:1],
,Ch[2:1],
6h[2:1],8>6[4:3],
,8,
8h[4:1]/7h[4:1],{4}6/1h[1:1],{12}E6,B5,B6,
{2}C,8h[4:1],
7h[4:1]/1h[4:1],6h[4:1]/2h[4:1],
{8}3,3,5,5,{24}4,5,{12}4,7,5,6,2,
{8}B7/E7/A7,C,{4}B8,{8}E2,E3,E4,C,
,E5/B5/B4,,D6,A5,E6,B5,B6,
C,B7,,B8,,E1/D1,,A1,
,A2/E3,,A3,E4,A4,,A5,
E5,E6,{4}B5,{8}B6,C,B7,B8,
,E1/B1,,E2,,E3,E4,A4,
E5,E6,A6,E7,,E8,,E1/B1/Ch[8:7],
,,,,,,,,4/7h[8:9],
4,{4}3,{8}2,1,8,1>4[2:1],
,1,,,,,,,4/6h[8:9],
4,{4}3,{8}2,1,8,1>4b[2:1],
,1,,,,,,,4/5h[8:9],
4,{4}3,{8}2,1,8,1>4[2:1]*>4[2:1],
,1,,,,,,,4/Ch[4:7],
4,{4}3,{8}2,1,8,1>4[3:1]*>4p8b[8:5],
,1
,,,,,,,8<5[8:1],
1,{4}8,{8}3,4-8[8:1],5,6h[4:1],
,1h[4:1],,3,3,2,8,7,
5/6,4-8[4:1],,8<5[4:1],,5-1[4:1],,1,
,5,{16},,7,1,{2}2bh[8:3]/8bh[8:3],
(164.571){16}2,1,2,1,3,4,3,4,2,5,2,5,1,6,1,6,
(167.18)2,8,2,8,3,7,3,7,4,6,4,6,3,5,3,5,
(169.837)4,5,4,5,3,6,3,6,2,7,2,7,1,8,1,8,
(172){48}1b,2x,{24}3x,{48},,,,7b,6x,{24}5x,{48},,,,2b,3x,{8}4x,{32}6b,5,4,3,2,1,8,7,6,5,4,3,2,1,8,7,
{8}2>5[8:1],1,{4}2/6,{8}7-3[8:1],8-4[8:1],7,8<5[8:1],
,3/8,,4/3,2-6[8:1],8/1,2,1,
8x,1>3[8:1]/7-3[8:1],,1-5[8:1]/7<5[8:1],,1/7,,8x,
8,{16}2,1,3,8,4,7,{4}5b-1-3[4:1],5/6,
{8}7<4[8:1],4-8[8:1],{4}7,{8}2-6[8:1],1-5[8:1],2,1>4[8:1],
,6/1,,5/6,{4}7-4[8:1]/4-8[8:1],4/7,
{8}1,2,{16}3,5,4-8[8:1],6,{8}5,4/7-5-3-1[8:3],,7/1,
{4}Cf,{8}8h[16:1],8h[16:1],{4}8bw4b[8:1],8b,
{8}2x/6x,2,{16}7,5,,3,{8}4,{16}2,1,{8}2,1/8,
7-5[8:1],7,4>1[8:1],4,8-4[8:1],7-3[8:1],8,7,
2,1-5[8:1],2/8,1x,6,{16}7,8,{8}6,1/5,
{16}2-6-4b[4:1],4,2,4,{4}2,{24}8bxw4[8:1],,,,,,,B8,C,B4,,,{4}2x>4[8:1]/6x<8[8:1],
2/6,1-6[8:1]/5-2[8:1],1/5,
{8}1/5,2/6,{4}7v4[8:1]/3v8[8:1],3/7,1/5,
{24}4bxh[4:1]/7bx<4[8:1],,,,,,,3x,2x,1x,,,4bxh[4:1]/8bx>3[8:1],,,,,,,5x,6x,7x,{96},,,,,,,,{32}4bxh[4:1]/8bxh[4:1],
,,,,,,,,7x/3x,6x/2x,5x/1x,{8}4x/8x,{4}4x/8x,2v5[8:1]/6v1[8:1],
{128}2/6,Cf,{16},,,{64},,,{4}8z4[4:1],3b,1,
{8}3>6[4:1],5/4,{4}6<3[4:1],{2}5-1[8:1],
(180){4}7-5[8:1]/3-5[8:1],3-1[8:1]/7-1[8:1],3x/7x,3b/7b,
{16}2,8,2,8,3,7,4,6,{4}5h[4:1],7-5-1[4:1],
1-3-7[4:1],4,1b,{8}6,5/7,
3,4/2,{4}5h[4:1]/1-5[8:1],1b,4>1[8:1]/6<1[8:1],
6-4[8:1],1x-5[8:1],1b/8,6/4,
{16}3,5,3,5,2,6,1,7,{4}8h[4:1],6-2[8:1],
6/2,1-4[8:1]*-6[8:1],1b,{8}5bh[16:1]/4bxh[16:1],3h[16:1]/4h[16:1],
4h[16:1]/5h[16:1],5h[16:1]/6h[16:1],5h[16:1]/2h[16:1],4h[16:1]/8h[16:1],{4}Cf/B7/B6/E7/A7/D7/A6/B3/B4/A4/D4/A3/E4,8<2[1:1]/2>8[1:1],
{1}2b/8b,
{4},,2-6[8:1],{128}8,C,{16},,,{64},,,{8}7/8,
7/8,5/6,5/6,4/3,4/3,2/1,2/1,
3/4,6/5,7/8,1/2,2/4,4/5,5/7,5/7,
{16}3,4,2,5,1-6-2-5b[8:3],6,,,{2}1b,
{16}6,5,7,4,8-3-7-4b[8:3],3,,,{2}8b,
{16}2b,4,3,7b,5,6,1b,3,2,8b,6,{64}7,,,A1,A1,D2,A2,D3,A3,D4,A4,D5,A5,D6,A6,D7,A7,D8,A8,D1,
{32}2bx/A1/Cf,3bx,4bx,5bx,6bx,7bx,8bx,1bx,2x-6[8:1],3x,4x,5x,6x,7x,8x,1x,{2}2bv8[8:1]*v4[8:1],
E
