&title=caesura.
&artist=aka
&first=0
&lv_5=14+
&des_5=伟伟phira
&inote_5=
(200){4},{1},,,{4},,,{16},{32},8b/1b,
7/2,6/3,{16}5/4-1[0.4875##0.075],{8},1>2[0.9375##0.1125],,,,2-7[0.9##0.1125],
,,,,,7-4[0.525##0.15],{32},,,,,,,,,,,3h[16:17],
{1},{32},6h[32:31],
{16},,,,,,,,,,,,,,,{8}3h[1:1],
{32},,,E1f,,,,,,,,E7f,{4},{8}E5f,
,6h[32:33],{4},,,{16},,{32},1>5[0.5625##0.675],
{16},,,,,,,{8}5<1[0.6375##0.675],{32},,,,,,,,,,,,,1,
{16},,,,,,,,,{4}8w4[0.4875##0.075],
{32},,,,,,,,,,,,,,,,,,,Cfh[32:17],{2},{8}B1f/B2,
{32},,,,,,,,,,,,,5-8[0.6375##0.1125],{16},,,{8}4-1-6[0.375##0.1125],
,,,,,E8/B7/B6/E6/B5/B4,,,,E8/B7/B6/E6/B5/B4,
{32},,,,,,,,,,,,,E8/B7/B6/E6/B5/B4,,,,,,,,,,,,,,,,5b/3,
{16}6,{32},,,,,3,,,,,,,,4,,,,,,,,3,,,,,,,,2,
,,,,,,,3,,,,,,,,3,,,,,,,,3,,,,4,
,,,4b/7,{16}3,{32},,,,,6,,,,,,,,5,,,,,,,,6,,,,,,,,7,
,,,,,,,5,,,,,,,,6,,,,,,,,5,,,,,,,,{800}8b/1,
{80},{800}7,,,,,,,,{100}6,5,{4},,{16},,{64},{320},{32}1,,,,,,,,6/2,
{8}7b,{32},,,,,,,7,,,,,,,,,,,,2,,,,,,,,7/1,
{8},{32}6,{8},{32}6,{8},{16}6,{32},,,2/7,{8},2,
{32},2,{8},{16}2,{32},1,{16},{32}6,{16},{32}7,{16},2,{32},1,{16},{32}6,{16},{32}7,{8},{32}8b,
{8},{32}7b/2b,3,4,{16}5,7,{32},,,7,{8},{32}2b/7b,6,5,4,,,,E8/B8/B1/E2/B7/B2/B6/B3/E6/E4/B5/B4/C,,,,,,7b/2b,
3,4,{16}5,7,{32},,,7,{8},{32}2b/7b,6,5,4,,,,,,,,E8/B8/B1/E2/B7/B2/B6/B3/E6/E4/B5/B4/C,{16},,,{32}2b/7b,
6,5,4,,2,{8},2,{32},7b/2b,3,4,{8}5,{32},,,E8/B8/B1/E2/B7/B2/B6/B3/E6/E4/B5/B4/C,,,,,,,,2b/7b,
6,5,{16}4,{32}2,{8},{32}2,{8},{32}7b/2b,3,4,5,A6f,A7f,A8f,A1f,A2f,A3f,A4f,A5f,,,,,,4/2-6[16:1],
,,,3,,,,5/2,,,,3,,,,2-6[16:1]/6-2[0.375##0.075],,,,,,,,,,,,,,,,5/7-3[16:1],
,,,6,,,,4/7,,,,6,,,,7-3[16:1]/3-7[0.375##0.075],,,,,,,,,,,,,,,,1/2-6-1[8:1],
,,,2/1-6-2[8:1],{16},,,,,,,,,1-5[16:1],,,,1/5,
{32},,,,,,,,,8h[32:13]/1h[32:13],,,,,,,,,,,,,,2/7,3/6,4h[32:5]/5h[32:5],,,,,,,,,,,,,,6/C,
,,,,,,,,,,,3,,6/C,,,,,,,,,,3,
{16},,,6/C,{32},,,,,,,,,,,3,,,,6/C,,,,,,,,3,
{16},,,6/C,{32},,,,,,,,,,,3,,,,6/C,,,,,,,,3,
{16},,,6/C,{32},,,,,,,,,,,3,,,,6/C,{8},5/6,
3,6/5,3,6/5,4,6/5,4,
3/4,6,3/4,6,3/4,5,3/4,5,
{16},4/6h[1:1],4,4,4,5,5,5,5,4,4,4,4,5,5,5,
5,{32}5b,4,3,2,1,8,7,6,5b,4,3,2,1,8,7,6,5b,4,3,2,1,8,7,6,5b,4,3,2,1,8,
7,6,5b-1[0##0.075],4h[16:17],{1},{64},,{256},5/3,
6/2,7/1,{64}8h[64:27],{16},,,,,,,{8}7h[8:1],6h[8:1],5h[8:1],
4h[8:1],3h[8:1],2h[8:1],1-6-3[8:1],{16},,,,,,,,,6h[4:3],
,,,,,,,,,,,3h[16:9],,,,,,,,,,,,4h[32:3],
{32},5h[32:3],{16},{32}6h[32:3],{16},{32}7h[32:3],{16},8h[32:3],
{32},1h[32:3],{16},{32}2h[32:3],{16},{32}3h[32:3],{16},4h[32:3],{32},5h[32:3],{16},{32}6h[32:3],{16},{32}7h[32:3],{16},8h[32:3],{32},1h[32:3],{16},{32}2h[32:3],{16},{32}3h[32:3],
{8},7,6,5/2,3,4/7,6,5/2,
3,4/7,6,5/2,3,4/7,6,5/2,
3,4/7,6,5/2,3,4/7,6,5/2,
3,4/7,6,5/2,3,4/7,6,5/2,
3,4/7,6,5/2,3,4/7,6,5/2,
3,4/7,6,5/2,3,4/7,6,5,
{32}Ch[32:27],{16},,,,,,,,,,,,,{32}6,{8},{32}5-1-4[0.1875##0.3],
{8},{32}5/4-8-5[4:1],{8},,,,,{16}4,{32},,,3,
{8},3bh[32:9]/5-2[0.15##0.075],{32},,,,,,,,,,,6bh[32:9]/4-7[0.1125##0.1125],,,,,,,,,,,,,,,,7h[32:15]/5-1[0##1.3125],
{16},,,,,,,6h[16:9],{2},{8}5b,
{16},,,,,,,Ch[16:5],{4},{8}7p2b[8:1],
3p6[0.1875##0.1125],{16},,,,,,,,,,,,,8/C,
,7,,6,,5,,1/C/C,,2,,3,,4,
,8/C/C,,7,,6,,5,,1/C/C,,2,,3,,4,
,5h[16:9]/C,,,,,,,,,,,,2,{32},,,,,,,3h[16:9]/C,
{4},,,{16},,,{32},6h[32:17]/C,
{4},,{16},,,{32},5,,,,,,,,3h[32:17]/C,
{2},{8}4h[32:17],{2},{8}6,
5,4,3,2,1,
8,7,3,4,5,6,7,8,
1,2,A6,A7,A8,A1,A2,A3,
A4,A5,E3/B2/B3,E3/B2/B3,E7/B7/B6,E7/B7/B6,B8/B1/E1,B8/B1/E1,
B5/B4/E5,6/B5/B4/E5,5,4/6,5,6/4,5,6/4,
5,3/5,4,3/5,4,{16}3/5,4,4,4,{8}3/5,
4,3/5,4,3/5,4,3/5,4,5/3,
4,6/4,5,6/4,{16}5,6/4,5,4,3,4/2,3,4,
5,4/7-3[8:1],,5,,7,,5,,5/2-6[8:1],,5,,2,,5,
{32},,,8-4-6[0.675##0.3375]*-4-2[0.675##0.3375],,,,1,,,,7/1,,,,7,,,,,,,,,,,,,,,,,,,,3,
,4,,3,,4,,8,,7,,8,,7,,1,,2,,1,,2,,6,,5,,6,
,5,,Cf,{1},{4},,{16},,,{32},C,
,,,E3/E7,
,,,E7/E3/Ch[4:1],,,,,,,,E3/E7,{16},C/E3/E7h[4:1],,,,C/E3,{32},E7/C/E3h[32:7],{8},{16}E7/C,
{32}E7/C,{16},{32}7/3h[32:5],6,5,,,,,,5/3h[32:5],6,7,,,,,,7/4h[32:5],6,5,,,,,,5/4h[32:5],6,7,,,,,,2/6h[32:5],
3,4,,,,,,4/6h[32:5],3,2,,,,,,2/5h[32:5],3,4,,,,,,4/5h[32:5],3,2,,,,,,7b/3h[32:5],
6,5,,,,,,5b/3h[32:5],6,7,,,,,,7b/4h[32:5],6,5,,,,,,5b/4h[32:5],6,7,,,,,,6/3,
,5,,4,,5,,3/6,,4,,5,,4,,3/6,,4,,5,,4,,6/3,,5,,4,
,5,,7bx/3h[32:5],6,5,,,,,,5bx/3h[32:5],6,7,,,,,,7bx/4h[32:5],6,5,,,,,,5bx/4h[32:5],6,7,,,,,,2bx/6h[32:5],
3,4,,,,,,4bx/6h[32:5],3,2,,,,,,2bx/5h[32:5],3,4,,,,,,4bx/5h[32:5],3,2,,,,,,1/8,
2/7,3/6,{16}4/5,{4},{32}4/5,3/6,2/7,1/8,{8},3/2,4/5,
{16}7/6,{32}2/6h[32:5],3,{8}4,{16},{32}4/6h[32:5],3,{8}2,{16},{32}2/5h[32:5],3,{8}4,{16},{32}4/5h[32:5],3,{8}2,
{16},4,3,4,3,5,2,5,2,6,1,6,1,7,8,7,
{32}8,{16},{32}4/5,,,,5/4,,,,,,,,2/6,3/5,4bx,{4},{16}3x,{8},6,
{16}2/6,2-6[16:1]/6-2[16:1],{2},{32}2/3,{8},{32}7/6,{8},{16}1>4[0.4875##0.225]/8<5[0.4875##0.225],
{32},,,,,,,,,,,1/8,{16},,,,,3/6,,,,3,
4,3,4,2,3,2,3,7,6,7,6,5,6,5,
6,{32}8b,7,6,5,4,3,2,1,8b,7,6,5,4,3,2,1,8b,7,6,5,4,3,2,1,8b,7,6,5,4,3,
2,1,8b,7,6,5,4,3,2,1h[32:27]/5h[16:9],{1},{4},{32},6h[32:25]/5h[8:1],
,,,4h[8:1],,,,3h[8:1],,,,2h[8:1],
,,,1h[8:1],,,,8h[32:5],{8},7,{32},,,,,,,,,,,,,,,,,,,1h[32:27]/5h[16:9],
{1},{4},{16},,,{32},5/6h[2:3],
,,,4,,,,3,,,,2,
,,,1,,,,8,,,,7,,,,5,,,,4,,,,3,,,,2,,,,1,
,,,8b/Ch[1:6],,,,,,,,6b,,,,,,,,7b,,,,,,,,6b,,,,,,,,5b,
,,,,,,,6b,,,,,,,,3b,,,,,,,,2b,,,,,,,,3b,
,,,,,,,3b,,,,,,,,2b,,,,,,,,3b/B7h[4:13],,,,,,,,6b/B2h[1:3],
,,,,,,,6b,,,,,,,,4b,,,,,,,,2b,,,,,,,,3b,
,,,,,,,2b,,,,,,,,3b,{16},,{32},,,4b,,,,,,,,6b,
,,,,,,,5b,{16},,,{32},7b,,,,,,,,5b,,,,,,,,7b,
{8},,,,3/4,,4/3bh[4:1],
,4,{32},,,5/4,{16},,,5/6bh[#0.3000031],,,,5,{32},,,,,4/5,
,,,,,,,4/3bh[4:1],,,,,,,,4,{16},,,{32}5/4,{16},,,{32}5/6bh[4:1],
{16},5,{32},5,{16},{8}3,4,5,6,3,3,
3,4,5,5/6h[4:1],,{32}5,{16},{32}3,4,5,,,,6,{16},{4}4/3h[4:1],
{16}4,{8},{16}3,4,3,{24}4/6,4,,{12}3/5,5,6/4,
4,3/5,5,6/4,{96}4,1,{48},{32}2,3,4,5,6,7,8,1,{8}2,{32}8,7,{16}6,{32},1,2,3,
{16}4,{32}5,4,5,4,5,4,5,1,2,3,4,5,,4,,8,7,6,,,,3,8,7,{16}6,{24}7,6,5,
{32}4,{16},{32}1,2,3,4,5,6,7,8,1,2,3,{16}4,5,4,5,3/6,{32}6/3,7,6,5,4,1,2,3,
4,5,6,7,8,1,6,5,4,3,6,5,4,3,6,5,4,3,6,5,4,3,{16}6/5,3/4,6/5,4/3,6/5,
3/4,6/5,4/3,5/6,4/3,6/5,4/3,6/5,4/3,6/5,4/3,6/5,{4}4/3,
{16},{32}8,7,6,5,,7,6,5,{16}4,{32}6,5,4,3,,5,4,3,{16}2,{32}8,7,6,5,4,3,2,1,,8,
7,6,5,4,3,2,{16}1,{32}8,7,6,5,4,3,2,1,,8,7,6,5,4,3,2,{16}1,{32}8,7,6,5,4,3,
2,1,,8,7,6,5,E8/B8/B1/E2/B7/B2/B6/B3/E6/B5/E4/B4/C,,,,,,,,,,,,,,A6/A3,,,,,,,,B4,,,,,,,,A3/A6,
,,,,,,,,,,,,,,,,,A3/A6,{2},{4}A6/A3h[2:1],
,A6,
,A3/A6h[2:1],,A3,
{16},,,{32}1bxh[16:65]/A8,D8,A7,D7,A6,D6,A5,D5,D4,A3,D3,A2,D2,A1,D1,A8,A7,D7,A6,D6,A5,D5,A4,D4,A3,D3,
D2,A1,D1,A8,D8,A7,D7,A6,D6,A5,D5,A4,D4,A3,D3,A2,D2,A1,D1,A8,D8,A7,A6,D6,A5,D5,A4,D4,A3,D3,A2,D2,
D1,A8,D8,A7,D7,A6,D6,A5,D5,A4,D4,D3,D2,A1,D1,A8,D8,A7,D7,A6,D6,A5,D5,A4,D4,A3,D3,A2,D2,A1,D1,A8,
D8,A7,D7,D6,D5,A4,D4,A3,D3,A2,D2,D1,D8,D7,A6,D6,A5,D5,A4,D4,A3,D3,A2,D2,A1,A8,D8,D7,A6,A5,D5,A4,
D4,A3,D3,A2,A1,D1,A8,D8,2bxh[16:65]/A8,D8,A7,D7,A6,D6,A5,D5,D4,A3,D3,A2,D2,A1,D1,A8,A7,D7,A6,D6,A5,D5,A4,D4,
A3,D3,D2,A1,D1,A8,D8,A7,D7,A6,D6,A5,D5,A4,D4,A3,D3,A2,D2,A1,D1,A8,D8,A7,A6,D6,A5,D5,A4,D4,A3,D3,
A2,D2,D1,A8,D8,A7,D7,A6,D6,A5,D5,A4,D4,D3,D2,A1,D1,A8,D8,A7,D7,A6,D6,A5,D5,A4,D4,A3,D3,A2,D2,A1,
D1,A8,D8,A7,D7,D6,D5,A4,D4,A3,D3,A2,D2,D1,D8,D7,A6,D6,A5,D5,A4,D4,A3,D3,A2,D2,A1,A8,D8,D7,A6,A5,
D5,A4,D4,A3,D3,A2,A1,D1,A8,D8,{16}A7,{1},{4},,,{16},,{32},Cf,
E
