&title=Horizon Blue
&artist=Nothing but requiem
&first=0.296
&lv_5=14+
&des_5=IChrrot.
&inote_5=
(200){4},{1},{32}1b,
2x/8x,3x/7x,4x/6x,{8}5b>5[8:19]*<5[8:19],{4},,,,,,,,,,,Cf/B7/B6/E3/B2/B3/E7,
{2},{4}8b/2,
5b/6-1[8:1],6b/4-8[8:1],4b/7h[4:3],
{2},C,
{4}5h[4:1],2pp1[1:1],{2}6h[4:1],
{4}B7,B6,B5,4pp5[2:1],
{2},4qq2[4:1],
{8}7,6,{4}5pp1[4:3],5,2-4[4:1],
{2}2,{4}8h[4:3],2h[4:3],
{2},C,
{8}2,3,{4}4pp5[2:1],2,2,
{2}3h[4:1],{8}7,6,{4}5pp6[2:1],
{8}3h[4:1],{4},{8}B2,{2}B3,
{8}2/5,3/6,{4}7/4>8[2:1],7h[8:1],6h[8:1],
{8}5,5,{4}2qq5[4:3],{8},6,{4}6h[4:3],
{2},C,
{8}3>1[8:1],3,{4}5h[4:1],{8}8V24[4:1],8,5,6,
{2}7h[4:1],{8}6<8[8:1],6,{4}4h[4:1],
{8}1<5[4:1],1,4,3,{2}2h[4:1],
{8}4,4,{4}3>8[4:1],8<5[4:1],5>2[4:1],
2<7[4:1],7q4[4:1],{8},6,{4}6h[8:5],
{8},{16}5,4,3,2,{8}1,{2}8b/7b,
{8}3qq7[2:1],3,{4}5h[4:1],,{8}5<8[16:3],5,
{2}1h[2:1],{8}6pp1[2:1],6,{4}4,
{2}3h[4:1],{8}2pp3[4:1],1,{4}8h[8:1],
{8}6,6,3,6,{4}4h[4:1],{8}6,5h[8:3],
{4}3>8[16:3],3,{8}5,5,1>4[16:3],5h[8:3],
{2}1,{4}5h[16:1]/4h[8:1],5h[16:1]/3h[8:1],
5h[16:1]/2h[8:1],5h[16:1]/1>4[4:1],4<7[4:1],7>2[4:1],
2>5[4:1],5<8[4:1],{2}8w4[2:1],
,1h[8:5]/7h[8:7],
{4},{16}2,3,4,5,8,7,6,5,4,3,2,1,
{4}8b/C,{2},{4}8<4[4:1],
{8}2,2,{4}1h[4:1],3<8[8:3],3/1,
2h[8:3],1qq8[8:3],,B3,
{2}4h[4:1],{8}7,7,{4}5qq3[4:1],
5/1<5[4:1],1,{2}4h[4:3],
{4}2,{16}2,1,8,7,6,5,4,3,2,1,8,7,
3/6,4,5,6,7,8,1,2,{4}3/6b,1>5[4:1],
{8}7,7,{4}8h[4:1],6>1[8:3],6/8,
7h[8:3],8pp1[8:3],,B6,
{2}5h[4:1],{8}3,3,{4}8<5[4:1],
5>2[4:1],2<7[4:1],{2}7<4[4:1],
{4}3h[8:1],{16}4/3,2,1,8,4,3,2,1,5,4,3,2,
7,6,5,4,8,7,6,5,1,8,7,6,{4}5/3qq2[8:3],
E7,B5,4pp5[8:3],E3,
B1,8>5[2:1],,5w1[4:1],
{2},{8}8,8,{4}3qq8[4:3],
B7,B6,{2}5h[4:3],
{4}7,{16}7,8,1,2,3,4,5,6,7,8,1,2,
6/3,5,4,3,2,1,8,7,{4}6/3b,3qq1[4:1],
B7,B5,4pp6[4:1],B8,
B2,4-2-5-1[2:1],4/7,{8}7,7,
{2}6h[4:1],{8}2,2,{4}8-2-7-3-6-4[1:1],
,,,,,5w1[2:1],
,,,{16}7,
6,5,4,3,2,1,8,{4}7bh[16:1]/3bh[8:1],
5h[16:1]/6h[8:1],2h[16:1]/8h[8:1],{2}5h[8:5]/B2/B3/E3,
{8}2h,2h,{4}8h[16:1]/6h[8:1],5h[16:1]/3h[8:1],2h[16:1]/1h[8:1],
4h[8:3]/6h[8:1],{16}6,7,8,1,4,3,2,1,{4}6h[16:1]/8h[8:1],
5h[16:1]/4h[8:1],3h[16:1]/1h[8:1],5h[16:1]/7h[8:1],8h[16:1]/1h[8:1],
4h[16:1]/2h[8:1],1h[16:1]/7-4[8:1],7/1-5[8:1],1/6<1[8:1],
6/2>5[8:1],2/8-4[8:1],{8}8/2h,2h,{4}3bh[16:1]/7bh[8:1],
1h[16:1]/2h[8:1],6h[16:1]/4h[8:1],{2}1h[8:5]/E7/B6/E6/B5,
{8}6h,6h,{4}4h[16:1]/2h[8:1],1h[16:1]/7h[8:1],6h[16:1]/5h[8:1],
8h[8:3]/3h[8:1],{16}2,3,4,5,8,7,6,5,{4}2h[16:1]/4h[8:1],
1h[16:1]/8h[8:1],7h[16:1]/5h[8:1],1h[16:1]/3h[8:1],4h[16:1]/5h[8:1],
8h[16:1]/6h[8:1],7xh[8:1]/2xh[16:1],8xh[8:1]/3xh[16:1],1h[8:1]/6xh[16:1],
7xh[16:1]/1bw5[4:1],{2},{4}2xh[8:1]/4<8[4:1],
2xh[8:1],2xh[8:1],7h[8:1]/1xh[8:1],7h[8:1]/1xh[8:1],
{8}6h/2xh,6h/3xh,{4}6h/4x-8[8:1],4/7x-5[8:1],7/1x-3[8:1],
1/4xh[4:1],{16}2,1,8,7,6,5,4,3,{4}1h[16:1]/2h[8:1],
6h[16:1]/4h[8:1],{32}1h[8:1]/E7,B6,B5,E5,{8},{4}8h[16:1]/7h[8:1],3h[16:1]/5h[8:1],
{32}8h[8:1]/E3,B3,B4,E5,{8},{4}7h[16:1]/1h[8:1],6h[16:1]/5h[8:1],4h[16:1]/2h[8:1],
6h[16:1]/8h[8:1],1h[16:1]/2h[8:1],{8}5/3b-8[8:1],4b/6,{4}3b/5-1[8:1],
5/7b-4[8:1],7b/2h[4:3],C,B7,
B3,1/7b-4[8:1],7/1b-5[8:1],1b/7h[4:3],
B2,C,B6,{12}3/4x,,2x/8,
,6x/5,,4bx/2b,2x/4,4x/2,,8x/7,,6/4x,,7/3x,
8bx/2b,2x/8,{6}2/8x-6[6:1]*-4-2[2:1],{3},,{4}C,
{16}8,2,8,2,{24}7,6,5,1,2,3,{4}4b-8[8:1]/7b-5[8:1],
4/7-3[8:1],7/2-8[8:1],2/4<1[16:3],2/4,
{8}2,2,{4}3-5[8:1]/1-5[8:1],1/3-8[8:1],6-2[8:1]/3-5[8:1],
6/3,{24}1,8,7,2,3,4,7,6,5,1,2,3,{4}4-8[8:1]/7-5[8:1],
4/7-3[8:1],7-5[8:1]/1-5[8:1],1-3[8:1]/7-3[8:1],1/7-5[8:1],
7,{8}2-5[8:1]/4-8[8:1],5/3,{4}4/2,{8}7/3,7/3,
8-5[8:1]/4v1[8:1],2/6,{4}4/8,{8}6x/2x,{16}2x/6x,3x/7x,{4}4x-2[8:1]/8x-4[8:1],
4/8-2[8:1],6/8-6[8:1],3/8>5[16:3],8/5,
{8}6,6,{4}7-1[8:1]/5-3[8:1],5/7-3[8:1],2-6[8:1]/7-1[8:1],
2/7,{8}8x/4x,4/8,{16}7x/3x,6/2,{8}1/5,{4}8x-4[8:1]/4x-8[8:1],
4x-2[8:1]/8x-6[8:1],4x/8x,{8}5x/1x,5/1,2x/6x,6/2,
3x/7x,3/7,{24}4,6,4,6,{12},{24}3,5,3,5,{12},{24}6,4,6,4,{12},{24}3,
5,3qq4[12:5],5,{12},,,,,,,{4}5w1b[4:3],
{1},{8}2x/6x,
3x/7x,4x/8x,2x/6x,{4}4x-1b[8:1]/8x-5[8:1],4x<7b[8:1]/8x>3[8:1],
8x/4x,{24}8,7,6,2,3,4,7,6,5,1,2,3,{4}4b-8[8:1]/7b-5[8:1],
4/7-3[8:1],7/1-5[8:1],1xV75[8:1]*<5[8:1],1V35[8:1]*>5[8:1],
1b,1-3[8:1]*-4[8:1],1-6[8:1]*-7[8:1],1b,
{8}8/2,6/5,7/1,4/3,8z4[8:1]/1s5[8:1],3/6,{4}8b/1b,
2xv5[8:1]/6x-1[8:1],2/6,{6}4h[12:1]/8h[12:1],3h[12:1]/7h[12:1],{24},{8}2/6,
1-4[8:1]/5v8[8:1],3/7,{4}1/5,8xw4[8:1]*w4[8:1],{64}8bx,{32},{64}B8,Cf,B5/B4/B3,{32},,,,,{8}2x/6x,
2/6,1x/5x,1/5,{16}6x/2x,7/3,8x/4x,5/1,{4}6xh[8:1]/2xh[8:1],
{8}3/5,5/3,4/6,4/6,8/1,8/1,2/4,7/5,
8/1,6/3,{4}B7/E7/B6,{8}B3/B4/E4,8,8w4[8:1]*w4b[8:1],8,
{1}8b<8[2:1]*>8[2:1],
{4}4,4,3h[2:1],5,
5,6h[2:1],5,4,
3h[4:1],5h[4:1],{8},3,{4}3>5[4:5],
,E7,E8,E1,
E2,E3,,4-8[2:1],
4h[2:1],{2},{4}6/3h[2:1],
5h[8:1],5,3/6h[2:1],4h[8:1],
4,5/3h[2:1],4h[8:1],5,
{8}4/6h[8:3],4,{4}3h[4:1],{8},6,{4}6<4[4:5],
,E3,E2,E1,
E8,6-4-8-2b[2:1],,3,
3h[4:1],{24}1,8,7,6,5,4,8,7,6,5,4,3,{4}2bh[16:3]/6bh[16:3],
{24}3x/7x,4x/8x,{12}1x/5x,,{8}5>2[8:1]/1<6[8:1],3/7,{4}1b/5b,Cf,
{8}3b/5,2b/6,{4}7b-5[8:1]/1b-5[8:1],1b-3[8:1]/7b-3[8:1],7b/1b,
{16}6h,5h,6h,5h,8h,1h,8h,1h,4h,3h,4h,3h,{4}5x-1[8:1]*-1b[8:1],
5bx,{32}2x/8x,3x/7x,4x/6x,5x,{8},{4}5xw1b[8:1],{64}5bx,{32},{64}B5,C,B2/B1/B8,{32},,,,,{4}7h[8:1]/3h[8:1],
8b<5[8:1]/2b>5[8:1],8bv5[8:1]/2bv5[8:1],2b/8b,
{8}6/4,1/2,3/5,8/7,{24}4x,5x,4,5,4,5,{4}6b/3x-7[8:1],
3x/1b<6[8:1],1b/5xh[4:3],C,B7,
B3,8x/2b-5[8:1],2x/8b>3[8:1],8b/4xh[4:3],
B2,C,B6,{12}6/7x,,5x/3,
,1x/8,,7bx/5b,5x/7,7x/5,,3x/2,,1/7x,,2/6x,
3b/5x-7-1-3-5s1-5b[4:5],5b/3x,5x/3b,5b/3x,,,,,,,,,,,,,,,,,,{8}2b/3,
4/5b,
{6}6/7b,{12}1/2b,1b/2,{6}1/2b,{24}7/6b,{12},{24}5/4b,{12},3/2b,,7/8b,
7b/8,7/8b,,{32}1b/6bh[8:1],2,3,4,{8}5,{32}8b/3bh[8:1],7,6,5,{8}4,{32}1b,2,3,4,5b,6,7,8,
1b/5,2/6,3/7,4/8,{8}5b/1bw5b[2:1],
E
