&title=Inverted Paradise
&artist=Essbee
&first=0.1
&des=『H3X』 - ΛSCND//ΛBYSS.
&lv_5=14+
&inote_5=(200)
||
=====
Part
1
=====
{1},{4},Chf[4:3],,,{1},,,,
{6}B7f/3b,34,36,56,36,{12}5,4,5,,27,,3,6,4,5,3,{24}8,1,8,1,8,1,{12},2,6,{12}3,4,5,6,7,8,1,2,{24}37,6,5,4,3,2,1,8,7,6,5,4,3,2,{4}1>5[8:1]*<5[8:1],,
{48}5bx<1q1[4:13],6x/4x,7x/3x,8x/2x,1x>5q5[6:19]b,,,,,,,,{4},,,{1},,,
{6}4/6h[2:1],4h[6:1],,3h[2:1],5h[6:1],,7h[2:1],1h[6:1],,2h[2:1],8h[6:1],,B1,B2,B3,B5,B6,B7,{12}1,2,3,45,6,7,{2}1b/B1/Cf/B5,
{4}5/6pp1[2:3],56,,,E8/B7/B8,,,,4/3qq8[2:3],34,,,E2/B2/B1,,,,8/7qq4[2:3],78,,,E6/B6/B5,,,,1>8[4:3]b/8,18,,,C,,{16}1,7,1,7,2,6,2,6,
{4}4xw8[100#32:1]b,,A4f/D4/D5,3x-6-1-4-7-2-5-8-3[8:7],,,,,
8xw4[100#32:1]b,,A8f/D8/D1,7x-2-5-8-3-6-1-4-7[8:7],,,,,
{12}8/1v6[8:1],,2,1,2,,1/8v3[8:1],,7,8,7,,5/4v7[8:1]b,,3,4,3,,4/5v2[8:1]b,,6,5,6,,{1}8V26[8:5]*-5[8:5],
{16}Ch[2:1],,,B1,B8,B7,B6,B5,{4}B4,
||
=====
Part
2
=====
2-5[8:1]b/7-5[8:1]b,2b-7[8:1]/7b-1[8:1],7/2-4[8:1],6/2b-6[8:1],5/2bpp6[8:3],{36}2b,1,8,7h[6:1],,,,,,{8},,8x-6[8:1],1x-3[8:1]b,8,1,
5h[2:1],,2,2,{36}2bx,3x/6x,4x/7x,5xh[16:3]/8xh[16:3],,,,,,,4x/7x,3x/6x,2x<7-5>3[36:15]/5hx[16:3],,,,,,{4},D7/A6/D6,{36}8b,B8,Cf,B4,,,,,,{8}B2/E3,E7/B6,
{4}4,4/5-8[8:1]b,{8}5b,1,{32}2,3,4,5,6,7,8,1,{4}2<6-4>3[16:5],2,{16}B7/B8/C,,5x,,{8}5x,,
4h[2:1],,7,7,{36}7bx,3x/6x,2x/5x,4hx[16:3]/1hx[16:3],,,,,,,2x/5x,3x/6x,7x>2-4<6[36:15]/4hx[16:3],,,,,,{4},D3/A3/D4,{36}1b,B1,Cf,B5,,,,,,
{4}7-4[8:1]b/2-4[8:1]b,7b-2[8:1]/2b-8[8:1],2/7-5[8:1],3/7b-3[8:1],4/7bqq3[8:3],{36}7b,8,1,2h[6:1],,,,,,{8},,1x-3[8:1],8x-6[8:1]b,1,8,
4h[2:1],,7,7,{36}7bx,3x/6x,2x/5x,4hx[16:3]/1hx[16:3],,,,,,,2x/5x,3x/6x,7x>2-4<6[36:15]/4hx[16:3],,,,,,{4},D3/A3/D4,{36}1b,B1,Cf,B5,,,,,,{8}B6/E7,E3/B2,
{4}8b,1-3[16:1]/8-6[16:1],8/1b-5[8:1],4x/1b-3[8:1],6/1b-5[8:1],4/1b-7<5-3>2[8:3],1b,{8}C,B6,
{8}5h[2:1],,2,2,{36}2bx,3x/6x,4x/7x,5hx[16:3]/8hx[16:3],,,,,,,4x/7x,3x/6x,2x<7-5>3[36:15]/5hx[16:3],,,,,,{4},D7/A6/D6,{36}8b,B8,Cf,B4,,,,,,{4},
||
=====
Part
3
=====
{6}B6,2,3h[6:1],B7,3,4h[6:1],B8,4,5h[6:1],{36}1,84,73,62,,,,,,{4},
{6}B3,7,6h[6:1],B2,6,5h[6:1],B1,5,4h[6:1],{36}8,15,26,37,,,,,,{4},
{6}B8,4,3h[6:1],B7,3,2h[6:1],B6,2,1h[6:1],{36}5,62,73,84,,,,,,{4},
{12}84,,36,,4,5,27,,36,,1,8,2,8,3,8,4h[6:1],8h[12:1],{36}37,26,15,,,,,,,{4},
{12}5/E2,,4/E8,,2,3,4,,46,,7,6,5,,35,,26,26,2bx>6[8:1]b/6bx<2[8:1],,,,,,
3x/6x,,{24}4,5,4,5,{12}2,7,3,6,4,,8,1,2,,26,,37,37,3bx>7[8:1]b/7bx<3[8:1],,,,,,
6x,5x,4x/7x,,2x,1x,3x/8x,,81,,{24}2,3,4,,15,,8,7,6,,,,{12}37,37,3bx/7bx,,{12}6hx[6:1],,4hx[6:1],,
{1}5hx[1:1],Chf[1:1],
||
=====
Part
4
=====
8b-5-1-4[4:11]*-3-7-4[4:11]b,,,,{2}5h[1:1],C,4h[1:1],C,5<4[2:3],,5<8[2:1]b,,
{1}1b>7[1:1],7>5[1:1]b,5<3[1:1],3<2[1:1]b,{4}5,5,4,4,6/B1/E2/B2,6,3/B8/E8/B7,3,{16}8x,1,8,1,7x,1,8,1,6x,1,8,1,5x,1,8,1,4x,,1x/8x,,2x/7x,,3x/6x,,4xz8[8:1]/5xs1[8:1],,,,,,,,
{1}2b>1V35V71[4:13]b/7b<8V64V28[4:13]b,,,,
{12}45,,45,,6,5,6,,45,,3,4,3,,45,,{24}5,4,5,4,{12}7x,7x,3x,3x-7[8:1],5x,5x,{1}B7/C/B3,
||
=====
Part
5
=====
{4}Chf[2:1],,,,
{32}1bp5<1[8:3]/5bp1>5[8:3],26,37,48,,,,,{4},,,
{32}8bq4>1-5[2:1]/4bq8<5-1[2:1],73,62,51,,,,,{4},,,
{32}2bV85<1[2:1]/6bV41>5[2:1],37,48,51,,,,,{4},,,
{32}7bpp3[2:1]/3bpp7[2:1],62,51,48,,,,,{4},,,
8b/4b-1[8:1]*-7[8:1],,{12}1x/7x,,2x/6x,,3x/5x,,{4}4s8[4:1],8>8[2:1]b,4<8[4:1],8-4[4:1],4>1[4:1],1s5[4:1]b,5<1[4:1],1s5[4:1]*>1[2:1],A1f,,
{8}5xh,6xh,7xh,8xh,{24}1b,2,3,4,5,6,7-3[8:1],8,1,2,3,4,{2}Cf/5h[2:1],
{32}1b,4-7-2<6[2:1]/8-3-6>2[2:1],37,26,,,,,{4},,,
{32}2bp6V82[2:1]/6bp2V46[2:1],37,48,51,,,,,{4},,,
{32}5bpp1[2:1]/1bpp5[2:1],48,37,26,,,,,{4},,,
{12}45,,45,,6,5,6,,45,,3,4,3,,{36}5x,B6,B7,E8,,,1x,B2,B3,E4,,,{12}8,8,6h,6h,4,4,2h,2h,7,7,5h,5h,3,3,1h,1h,7,7,{32}3,4,5,6,7,8,1,2,3,4,5,6,7,8,1,2,{36}7b/3,B7,Cf,B3,,,,,,{4},
||
=====
Part
6
=====
{16}3b,4,3,4,1,8,1,8,5,6,5,6,1,8,1,8,3x,4,B2,C,4x,5,B1,B8,5x,6,C,B7,,,4x/5x,,
{16}2b,1,2,1,4,5,4,5,8,7,8,7,4,5,4,5,2x,1,B3,C,1x,8,B4,B5,8x,7,C,B6,,,1x/8x,,
{16}4b,5,B3,B6,4,5,B2,B7,4,5,B3,B6,4,5,B2,B7,4x,5,1,8,4x,5,1,8,4x,5,1,8,,,3x/7x,,
{16}1b,8,B2,B7,1,8,B3,B6,1,8,B2,B7,1,8,B3,B6,1x,8,4,5,1x,8,4,5,
{12}3x/7x,3x/7x,3x/7x,2x/6x,2x/6x,2x/6x,1w5[8:1]b,,,
{8}Cf/1b>5[4:1],,5bx<1[4:1],,1bV35[4:1],,5bV71[4:1],,1b>2-5[4:1],,5b<6-1[4:1],,1bV75[4:1]b,,5bV31[4:1],,1b<5[4:1],,5b>1[4:1],,1b<8-6>5[4:1],,5b>4-2<1[4:1],,1b-7<5[4:1],,5b-3>1[4:1],,1b,,
{16}7,6,5,4,3/B7,2,1,8,7/B3,6,5,4,3/B7,2,1,8,73,4,5,6,7/B3,8,1,2,3/B7,4,5,6,7h[8:1]/B3,,,,
8,7,8,7,B1,B6,B2,B5,3,4,3,4,B2,B5,B1,B6,{24}8,7,8,7,8,7,8,7,8,7,8,7,8,7/1x,8x/2x,1x/3x,2x/4x,3x/5x,4x,5x,6x,7x,8x,1x,{1}2bh[1:4]/Ch[1:2]/B5/B4/E5f,,,,
{6}E8,E7,E6,E4,E3,E2,B8,C,B4,B1,C,{12}B5,3x,{6}3x,5,4,6,3h[96:1],5h[96:1],2h[96:1],6h[64:1],1h[64:1],7h[64:1],8h[64:1],{12}8h[32:1],8h[32:1],,
E
