&title=Crush the Dystopia
&artist=Masahiro "Godspeed" Aoki vs MintJam
&first=0.58536583
&des=Dack, the Crusher
&lv_5=14.4
&inote_5=(205)
{1},
{4}2h[4:3],,,4h[4:3],,,5h[4:3],,,7h[4:3],,,1h[4:3],,,7h[4:3],,,5h[4:3],,,4h[4:3],,,2^5[1:1],,,7,,,6^1[1:1],,,3,,,
{8}25,,3,5,4,,47,,6,4,5,,
{16}3,5,4,6,4,5,3,5,4,5,3,5,4,6,4,5,3b-8[8:1]/6b-1[8:1],,,,,,,,
{8}7h[4:1],,5,5,,3h[4:1],,4,
{8}25,1,7,,2h[4:1],,4,4,
{8},6h[4:1],,5,47,,8,3,
{8}7h[4:1],,5,5,,3h[4:1],,4,
{8}25,1,7,,2h[4:1],,4,4,
{8},65,47,38,12,38,47,56,
{8}8h[4:1],,5,5,,3h[4:1],,4,
{8}25,7,8,,1h[4:1],,4,4,
{8},6h[4:1],,5,47,,3,1,
{8}8h[4:1],,5,5,,3h[4:1],,4,
{8}25,7,8,,34,34,25,16,
{8}78,56,47,38,12,38,47,56,
{8}2^5[8:1],,6,6-3[8:1],,7h[4:1],,8,
{8}16,3,5,,8^5[8:1],,4,4-7[8:1],
{8},2h[4:1],,1,38,,6,4,
{8}2^5[8:1],,6,6-3[8:1],,7h[4:1],,8,
{8}16,3,5,,8^5[8:1],,4,3,
{8},12,38,47,56,47,38,12,
{8}2^5[8:1],,6,6v3[8:1],,7h[4:1],,8,
{8}16,3,5,,8^5[8:1],,4,4v7[8:1],
{8},2h[4:1],,1,38,,6,4,
{8}2^5[8:3],,,5^8[8:3],,,8^3[8:3],,
{8},3<6[8:3],,,6<3[8:5],,,5h[2:1],
{8},,,,5-1[8:1],5,,,
{16}25,,3,3,4,,2,,18,,7,,47,,6,6,5,,7,,18,,2,,3qq8[2:1],,,,,,8,,
{8}7,6,5pp8[2:1],,1,2,3,4,
{8}5^2[8:1],,8,8pp7[2:1],,,,,
{8}5,,3,,
{16}2,5,2,5,3,4,3,4,
{16}2,1,2,1,3,8,3,8,4,7,4,7,5,6,5,6,
{8}3-8[8:1],,3,7p3[8:1],,7,1,,2^5[8:1],1,2,,6-1[8:1],,6,2q6[8:1],,2,8,,7^4[8:1],8,7,,
{8}2-5[8:1],,2,6q2[8:1],,6,4,,3^8[8:1],4,3,,
{16}7,4,7,4,6,5,6,5,
{16}7,8,7,8,6,1,6,1,5,2,5,2,4,3,4,3,
{4}6pp1[2:1],1,2,3,2-5[8:1],5,6-1[8:1],4,
{4}3qq8[2:1],8,7,6,7-4[8:1],4,3-8[8:1],5,
{4}6h[2:1]/5,4,3,2,
{4}3h[2:1]/4,5,6,7,
{4}8h[1:1]/1,5,4,3,2,1,7,3,
{16}28,,3,4,3,,17,,6,5,6,,28,,3,4,3,,2,,1<3[6:1],,6h[8:3],,,,,,,,,,
{8}34,2,56,7,34,2,7-4[8:1],4,7-1[8:1],3,7^4[8:1],3,7-3[8:1],3,7,4,
{8}65,7,43,2,65,7,2-5[8:1],5,2-8[8:1],6,2^5[8:1],6,2-6[8:1],6,2^7[8:1]*^5[8:1],5,
{8},,6,7,18,2,34,2,
{8}18,7,16,2,37,6,25,3,
{8}34,34,25,25,16,16,78,78,
{16}1,4,3,4,3,4,3,4,2,5,4,5,4,,,,
{8}65,7,43,2,65,7,1-3[8:1],6,1-7[8:1],5,1-4[8:1],5,1-5[8:1],5,1,6,
{8}34,2,56,7,34,2,7-5[8:1]/8,,7b/8-4[8:1],,8b/1-5[8:1],,1b/2-4[8:1],,1/2b,,
{8}27,,7-4[8:1]/1,,7/2-5[8:1],,2/6-1[8:1],,46,,45,7-1[8:1]/2-6[8:1],,27,,,
{8}2-5[8:1]/8,,2/7-4[8:1],,7/3-8[8:1],,3/6-1[8:1],,46,,37,1^4[8:1]/8^5[8:1],,1pp4[2:3]/8qq5[2:3],,1b/8b,
{1},
{4},,,
{8}4,3,2,1V37[4:1],,6,5h[4:1],,
{12}2,4,3,7,5,6,
{8}1h[4:1],,,7,5,6,4,5,
{8}3,
{16}2,1,2,,
{8}8,1,7,
{16}2,3,4,5,6,7,1,2,3,4,5,6,8,1,2,3,
{12}7,5,6,2,4,3,8,4,6,1,5,3,
{4}8h[4:3],,,2h[2:1],
{16},,,,7,6,5,4,3,4,5,6,7,6,5,4,3,,1,,7,8,7,8,7,,2,,4^1[8:1],,6,,8,7,6,5,4b,,,,,,7h[8:3],,,,,,
{8}4,3b-5[8:1],,6,7b-4[8:1],,1h[4:1],,
{16}6,4,7h[4:1],,,,3,4,1h[4:1],,,,6,4,8h[4:1],,
{16}1,2,3,4,2,3,4,5,3,4,5,6,7,8,1,2,
{1}3b/7b,,,,
{4}3^8[2:1],4,5,6,7^4[2:1],8,1,2,
{16}71,,6,5,6,,82,,3,4,3,,71,,6,5,6,,3,,8-5[6:1]*>5[6:1],,8,,,,,,,,,,
{8}35,2,46,7,35,2,8^5[8:1],3,8-3[8:1],4,8-5[8:1],4,8-4[8:1],4,8,3,
{8}65,7,53,2,64,7,2-6[8:1]/1,,2b/1-5[8:1],,1b/8-4[8:1],,8b/7-3[8:1],,8/7b,,
{8}72,,38,{16}2,2,{8}1-5[8:1]/7,,1/7-3[8:1],,74,,26,4-7[8:1]/8-3[8:1],,84,,,
{8}27,,61,{16}7,7,{8}8-4[8:1]/2,,8/2-6[8:1],,25,,37,6-1[8:1]/2-5[8:1],,6pp1[2:2]/2pp5[2:2],,2b/6b,
{8},,,,,,,,
{8}7^4[8:1],8,1,2^7[8:1],3,4,5,6,
{8}7,8>6[6:1],1,
{32}2h[4:1],,,,
{8},7,2,6,
{8}4,7,3,8,2qq5[6:1],7,6h[4:1],,
{12}2,4,3,7,5,6,1,3,2,8,6,7,
{16}1,2,3,4,8,7,6,5,1,2,3,4,6,7,8,1,
{24}3b,2,1,8,7,6,5,4,3,7b,8,1,2,3,4,5,6,7,2b,1,8,7,6,5,
{8}4^1[8:1],,4,7^4[8:1],,7,2^7[8:1],,2b/7b,,
{8}25,3,47,6,25,3,
{8}7h[8:1],8h[8:1],1h[8:1],2h[8:1],3h[8:1],4h[8:1],5h[8:1],6h[8:1],
{24}8b,7,6,5,4,3,2,1,8,7,6,5,2b,3,4,5,6,7,8,1,2,3,4,5,
{24}6,7,8,1h[8:2],,,
{8}5,5,24,3,75,6,
{8}17,,25,{16}3,3,{8}4-8[8:1]/6,,4/6-1[8:1],,26,,{16}3,3,{8}4V27[6:1]/8V63[6:1],,4b/8b,,,
{8}82,,74,{16}6,6,{8}5-1[8:1]/3,,5/3-8[8:1],,73,,{16}6,6,{8}5V72[6:1]/1V36[6:1],,5b/1b,,,
{16}3,4,2,5,8,7,1,6,2,1,3,8,5,6,4,7,
{16}2,5,3,4,2,7,1b-5[8:1],,,,1>7[2:3],,,,1h[8:13],,
{1},,
{8}45,,,4h[4:1]/5h[4:1],,,
{8}17,2,35,6,28,3,
{16}6,5,8,1,4,3,1b-4[8:15]/6b^4[8:15],,,
