&title=the EmpErroR
&artist=sasakure.uk
&first=0.300
&des=Safacoium
&wholebpm=120.000
&lv_6=15+
&des_6=Safacoium
&inote_6=(240)
{16}3h[4:1],,,,
5,,,,
4,,5,,
6h[8:1],,,,
{16}7/8,,,,
2,,,,
3/5,,,,
4/5,,,,
{16}5/7-5[8:1],,,,
3,,,,
2,,2,,
4,,4,,
{16}3/5,,,,
6,,,,
6,,,,
5/6,,,,
{16}6h[4:1],,,,
4,,,,
5,,4,,
3h[8:1],,,,
{16}4/2,,,,
1,,,,
8/7,,,,
4/6,,,,
{16}3>7[4:1],,,,
4,,,,
5<1[4:1],,,,
2b,,,,
{16}3,,4,,
5,,6,,
4,,4,,
6,,6,,
{16}3h[4:1],,,,
5h[4:1],,,,
4h[4:1],,5,,
6h[8:3],,5h[8:3],,
{16},,,,
6,,,,
5/6,,,,
4/7,,,,
{16}5/7-5[8:1],,,,
3,,,,
2,,2,,
4,,4,,
{16}4/2-4[8:1],,,,
6,,,,
6,,,,
5/6,,,,
{16}6h[4:1],,,,
4h[4:1],,,,
5h[4:1],,4,,
3h[8:3],,4h[8:3],,
{16},,,,
3,,,,
3/4,,,,
2/5,,,,
{16}6,,6h[4:1],,
3,,3h[4:1],,
5,,5h[8:1],,
2b,,,,
{16}1,,1,,
8,,8,,
3/7,,3/7,,
2/6,,2/6,,
{16}6/2-4[8:1],,,,
1/2,,,,
1-5[8:1],,,,
1/8,,,,
{16}8-6[8:1],,,,
6/8,,,,
5,,,,
4/6,,,,
{16}7/5h[4:1],,7,,
6,,6h[4:1],,
4,,4,,
7/5h[4:1],,7,,
{16}6,,4,,
4/5,,,,
4/5,,,,
3/6,,,,
{16}2/8V62[8:3],,,,
4,,,,
3,,3,,
1/3,,,,
{16}7/1V37[8:3],,,,
5,,,,
6,,6,,
6/8,,,,
{16}7-4[8:1],,2-5[8:1],,
,,,,
8,,,,
1/8,,,,
{16}5/7,,7,,
4/6,,4,,
3/5,,5,,
2/6,,,,
{16}7-5[8:1],,,,
7/8,,,,
8-4[8:1],,,,
1/8,,,,
{16}1-3[8:1],,,,
1/3,,,,
4,,,,
3/5,,,,
{16}2/4h[4:1],,2,,
3,,3h[4:1],,
5,,5,,
2/4h[4:1],,2,,
{16}3,,3/4,,
2/5,,,,
1/8,,,,
4/5,,,,
{16}7/1V37[8:3],,,,
5,,,,
6,,6,,
1/6,,,,
{16}2/8V62[8:3],,,,
4,,,,
3,,3,,
3/8,,,,
{16}6/2-6[8:1],,2/6-2[8:1],,
,,8,,
8-4[8:1],,,,
1,,,,
{16}2,,2,,
2/6,,2/6,,
2,,2,,
3/7,,,,
{16}5h[4:1]/6h[4:1],,,,
,,4h[4:1]/5h[4:1],,
,,,,
3h[8:3],,4h[4:1],,
{16},,,,
5h[8:3],,3h[4:1],,
,,,,
3h[8:3]/5h[4:1],,,,
{16},,,,
5h[8:3],,4h[8:3],,
,,,,
5s1[4:3],,4z8[8:5],,
{16},,,,
,,,,
,,,,
,,,,
{16}7-5[4:1],,,,
5-3[4:1],,,,
3,,,,
2,,,,
{16}2V46[2:1],,,,
4,,,,
6,,,,
7,,,,
{16}1h[4:1]/8h[4:1],,,,
,,1/8V63[2:1],,
,,2,,
,,3V58[2:1],,
{16},,2,,
,,1,,
1,,,,
2/7,,,,
{16}3h[4:1],,5h[4:1],,
,,,,
4h[4:1],,6h[4:1],,
,,,,
{16}5/4h[4:1],,,,
6h[8:3],,3h[4:1],,
,,,,
3/6,,,,
{16}4/5,,5/4v3[4:1],,
,,5v6[4:1],,
,,,,
,,,,
{16}1,8,1,8,
1,,,,
5,,5,,
4/5,,,,
{16}2V46[2:1],,,,
4,,,,
6,,,,
8,,,,
{16}7V53[2:1],,,,
5,,,,
3,,,,
1,,,,
{16}1h[4:1]/8h[4:1],,,,
,,8/1V36[2:1],,
,,7,,
,,6V41[2:1],,
{16},,7,,
,,8,,
8,,,,
2/7,,,,
{16}3,,4,,
5,,6,,
4,5,4,,
2/7,,,,
{16}2,,2,,
2/8,,8,,
4/8,,4,,
4/6,,6,,
{16}6/2-5[4:1],,,,
8,,8h[4:1],,
,,,,
4/7-4[4:1],,,,
{16}2,,2h[4:1],,
,,,,
8/3-8[4:1],,,,
6,,6h[4:1],,
{16},,,,
2/6,,3,,
4,,4/7,,
6,,5,,
{16}2/5,,,,
4/6,,,,
3/7-4[4:1],,3,,
2,,1h[4:1],,
{16},,,,
5/2-5[4:1],,5,,
6,,7h[4:1],,
,,,,
{16}1/7-4[4:1],,1,,
2,,3h[4:1],,
,,,,
3,4,3,4,
{16}3,5,4,5,
4,6,5,6,
5,4,3,2,
1,8,7,6,
{16}4/5,,,,
5,,4h[4:1],,
,,5,,
6/3h[4:1],,,,
{16}4,,5/2h[4:1],,
,,1,,
3/8h[4:1],,,,
1,,2/7h[4:1],,
{16},,8,,
1/6h[4:1],,,,
5,,4/7,,
,,3/4,,
{16}2/5,,,,
3,,,,
4h[16:1]/7h[4:1],,,,
8,,1h[4:1]/6h[16:1],,
{16},,8,,
2h[4:1]/7h[16:1],,,,
1,,3h[4:1]/8h[16:1],,
,,4,,
{16}2h[16:1]/5h[4:1],,,,
4,,3h[16:1]/6h[4:1],,
,,5,,
4h[16:1]/7h[4:1],,,,
{16}8,,1h[4:1]/6h[16:1],,
,,,,
2/5,,2,,
4/8,,8,,
{16}2/8V62[2:1],,,,
1h[16:1],,,,
2V48[2:1],,,,
1h[16:1],,,,
{16}8V62[2:1],,,,
1h[16:1],,,,
2V48[2:1],,,,
1h[16:1],,,,
{16}8,,,,
1h[16:1],,,,
1/8,,2h[16:1]/7h[4:1],,
,,8,,
{16}1h[16:1]/6h[4:1],,,,
5b,,,,
4<8[4:1],,,,
8>4[4:1],,,,
{16}4<8[4:1],,,,
8>4[4:1],,,,
4<8[4:1],,,,
8>4[4:1],,,,
{16}4V68[4:1],,4,,
8V24[4:1],,8,,
4V68[4:1],,4,,
8V24[4:1],,8,,
{16}4,,4,,
5,,6,,
2/7b,,2b/7,,
2/7b,,2b/7,,
{16}2h[4:1]/7h[8:3],,,,
,,3h[4:1],,
,,6h[4:1],,
,,4h[2:1],,
{16},,5h[4:1],,
,,,,
,,4h[8:1]/5h[8:1],,
,,,,
{16}6V48[1:1],,,,
,,,,
2,,,,
,,,,
{16}3,,,,
,,,,
4,,,,
,,,,
{16}5V31[1:1],,,,
,,,,
7,,,,
,,,,
{16}8,,,,
,,,,
1,,,,
,,,,
{16}2V46[1:1],,,,
,,,,
1,,,,
,,,,
{16}8,,,,
,,,,
7,,,,
,,,,
{16}6V48[1:1],,,,
,,,,
2,,,,
,,,,
{16}3,,,,
,,,,
4/5,,,,
,,,,
{16}5/3V51[1:1],,,,
6,,,,
7h[16:1],,,,
8,,,,
{16}1,,,,
8,,,,
7h[16:1],,,,
6,,,,
{16}4/5V71[1:1],,,,
3,,,,
2h[16:1],,,,
1,,,,
{16}2,,,,
3,,,,
4h[16:1],,,,
5,,,,
{16}6/3V17[1:1],,,,
7,,,,
6h[16:1],,,,
5,,,,
{16}4,,,,
3,,,,
4h[16:1],,,,
5,,,,
{16}4/6h[1:1],,,,
,,,,
,,,,
,,,,
{16}5s1[2:1],,,,
,,,,
,,,,
,,,,
{16}8/7<4[8:1],,,,
3,,,,
1/2>5[8:1],,,,
7,,,,
{16}1/8-4[8:1],,,,
3,,,,
3/5,2/6,1/7,,
1/7,,,,
{16}1/8,7,6,5,
3/4,5,6,7,
1/8,2,3,4,
5/6,4,3,2,
{16}1/8,7,6,5,
3/4,5,6,7,
1/8,2,3,4,
5/7,,,,
{16}4/3-6[8:1],,,,
8,,,,
5/7-2[8:1],,,,
4,,,,
{16}1/3<6[8:1],,,,
8,,,,
8,1/7,2/6,,
2/6,,,,
{16}3,,4<7[8:1],,
3,,4>1[8:1],,
,,4,,
,,7/8,,
{16}6,5,6,5,
7,,7,,
2,1,2,1,
3/8,,,,
{16}4/3>8[8:1],,,,
7,,7,,
5/6<1[8:1],,,,
3,,3,,
{16}5/4-8[8:1],,,,
7,,7,,
1/7,2/6,3/5,,
3/5,,,,
{16}4/5,3,2,1,
7/8,1,2,3,
4/5,6,7,8,
1/2,8,7,6,
{16}4/5,3,2,1,
7/8,1,2,3,
4/5,6,7,8,
1/3,,,,
{16}4/2-7[8:1],,,,
5,,5,,
8/6-3[8:1],,,,
1,,1,,
{16}4/2<7[8:1],,,,
5,,5,,
5,4/6,3/7,,
3/7,,,,
{16}1/6,,4/3h[4:1],,
,,8,,
5/6,,,,
3/4,,,,
{16}2/7,,2/7,,
3/6,,3/6,,
4/5h[4:1],,,,
{32}4,3,2,1,8,7,6,5,
{16}4b/8b,,,,
2/6-1[8:1],,,,
3,,2-6[8:1],,
,,7-2[8:1],,
{16},,3-7[8:1],,
,,6,,
5-8[8:1],,,,
2/5,,,,
{16}4,,4,,
7/3,,6,,
2,,3/7-3[8:1],,
,,7,,
{16}8,1,2,,
2/5,6,7,,
7/4,,4,,
3,5,3,5,
{16}2h[8:1],,,,
7/3-8[8:1],,,,
6,,7-3[8:1],,
,,2-7[8:1],,
{16},,6-2[8:1],,
,,3,,
4<3[4:1],,,,
7/4,,,,
{16}5,6,7,8,
1/4,5,6,7,
8/3,4,5,6,
7/2,3,4,5,
{16}6/2,1,8,7,
6/3,2,1,8,
7/4,3,2,1,
8/5,4,3,2,
{16}1/5b,,,,
2/7,,6,5,
6,,4,5,
4,5,4,,
{16}3/6,,2,1,
2,,3/6,,
7,8,7,,
1,8,1,8,
{16}2/7,,3,4,
3,4,2,,
6,5,6,5,
7,,1/8,,
{16}2,4,3,7,
5,6,3,4,
1,8,1,8,
2b/7b,,,,
{16}1/5,,1/5,,
3/6,,3/6,,
4/8,,4/8,,
2,,2,,
{16}1/2,,2/3,,
3/4,,4/5,,
4/5,,3/6,,
2/7,,2/7,,
{16}2/7,3,4,5,
6,7,8,1,
2/5,4,3,2,
1,8,7,6,
{32}1b/5,2,3,4,5,6,7,8,
1,2,3,4,5,6,7,8,
1/6b,5,4,3,2,1,8,7,
6b,5,4,3,2,1,8,7,
{16}6/2bz6[8:11],,,,
,,,,
,,,,
,,,,
{16},,,,
,,,,
,,,,
,,,,
{16}3h[4:1]/8z4[2:3],,,,
,,,,
,,,,
,,,,
{16}5-1[2:1],,,,
,,,,
,,,,
,,,,
{16}2-4[4:1],,,,
4V61[2:1],,,,
6,,,,
1-3[4:1],,,,
{16}3V57[2:1],,,,
5,,,,
7,,,,
8,,,,
{16}8h[4:1]/1h[4:1],,,,
,,8/1,,
,,7/2,,
,,5,,
{16}3,,8<5[8:1],,
1,,8>3[8:1],,
,,8,,
,,5,,
{16}4/6h[4:1],,4h[4:1],,
,,5,,
3/5h[4:1],,3h[4:1],,
,,,,
{16}4/5h[4:1],,,,
3h[8:3],,6h[4:1],,
,,,,
6/3,,7,,
{16}1/8<5[8:1],,,,
4,,3,,
1/2>5[8:1],,,,
6,,7,,
{16}8/2,,3,,
4,,6,,
5/4,,,,
8/1,,,,
{16}2/7-5[4:1],,,,
5V38[2:1],,,,
3,,,,
8-6[4:1],,,,
{16}6V42[2:1],,,,
4,,,,
2,,,,
1,,,,
{16}8h[4:1]/1h[4:1],,,,
,,1/8,,
,,2/7,,
,,3,,
{16}6,,1>4[8:1],,
8,,1<6[8:1],,
,,1,,
,,5,,
{16}6,,5,,
4,,3,,
5,4,5,,
7/2,,,,
{16}7,,6,,
5/1,,2,,
8/3,,7,,
6/2,,3,,
{16}4/7-4[4:3],,,,
,,,,
,,,,
2-5[4:3],,,,
{16},,,,
,,,,
6-1[4:3],,,,
,,,,
{16},,,,
3-8[4:3],,,,
,,,,
,,,,
{16}5h[4:1],,,,
,,,,
6/2-5[4:3],,,,
,,,,
{16},,,,
7-4[4:3],,,,
,,,,
,,,,
{16}2-5[2:1],,,,
,,,,
,,,,
6,,,,
{16}5,6,5,6,
4,5,4,5,
4,5,6,7,
8-5[4:1],1,2,3,
{16}4,,,,
4,,,,
3,,,,
2-7[4:1],,,,
{16}6h[8:1],,,,
4,,,,
1,,,,
2-5[4:1],,,,
{16}4h[8:1],,,,
6,,,,
7,,,,
4b/1-6[4:1],,,,
{16}5h[8:1],,,,
3,,,,
5/4>8[4:1],,,,
6,,,,
{16}4<8[4:1],,,,
2,,,,
1,,2,,
3/6V82[4:1],,,,
{16}2>6[4:1],,,,
6V41[4:1],,,,
1<5[4:1],,,,
3,,,,
{16}3,2,1,8,
4,3,2,1,
8/4,7/3,6/2,5/1,
4b/8b,,,,
{16}2/6,,6/2,,
3,,4,,
5,,6,,
7/5,,7/5,,
{16}4,,3,,
2,,1,,
5/1,,5/1,,
6,,7,,
{16}8/1,,8/1,,
2,,3,,
4/6,,6/4,,
7,,8,,
{16}1/7,,2/6,,
5/3,,,,
7,,5,,
2,,4,,
{16}7,6,5,,
2,3,4,,
8,7,6,,
2,3,8,7,
{16}2,3,8,7,
2,3,8,7,
2,3,8,7,
2,3,8,7,
{16}1,1,1,1,
1,1,1,1,
1,1,1,1,
1,1,1,1,
{16}1,1,1,1,
1,1,1,1,
1,1,1,1,
1s5[4:7],1,1,1,
{16}1,,,,
,,,,
,,,,
,,,,
{16},,,,
,,,,
,,,,
,,,,
{16}3V51[1:1],,,,
,,,,
,,,,
,,,,
{16}1V35[1:1],,,,
,,,,
,,,,
,,,,
{16}5V37[1:1],,,,
,,,,
,,,,
,,,,
{16}7V15[1:1],,,,
,,,,
,,,,
,,,,
{16}5V31[1:1],,,,
,,,,
,,,,
,,,,
{16}1s5[1:1],,,,
,,,,
,,,,
,,,,
{16}5z1[1:1],,,,
,,,,
,,,,
,,,,
{16}8,,,,
,,,,
5/4,,,,
,,,,
{16}6V48[1:1],,,,
3,,,,
2h[16:1],,,,
1,,,,
{16}8V64[1:1],,,,
1,,,,
2h[16:1],,,,
3,,,,
{16}4V62[1:1],,,,
3,,,,
2h[16:1],,,,
1,,,,
{16}2V84[1:1],,,,
3,,,,
3h[16:1],,,,
3,,,,
{16}4V68[1:1],,,,
3,,,,
2h[16:1],,,,
1,,,,
{16}8V62[1:1],,,,
1,,,,
2h[16:1],,,,
3,,,,
{16}4z8[4:3],,,,
,,,,
,,,,
,,,,
{16}7,,7,,
6/1,,6/1,,
2/6,,3/7,,
4/8,3,2,1,
{16}5/8-4[8:1],,,,
6,,7,,
3/1-5[8:1],,,,
2,,3,,
{16}4-2[8:1]/6-8[8:1],,,,
6/4,,,,
1,2/8,7/3,,
7/3,,,,
{16}5,6,7,8,
1/2,3,4,5,
6/8,7,6,5,
4,3/5,2/6,1/7,
{16}8,1,2,3,
4/5,6,7,8,
1/4,3,2,1,
8,7/1,6/2,5/3,
{16}4-8[8:1],,,,
7,,7,,
3/5-1[8:1],,,,
2,,2,,
{16}4/3-7[8:1],,,,
6,,6,,
8/5,1,2,3,
4/7,,,,
{16}6,,8>3[8:1],,
4,,8<5[8:1],,
,,8,,
,,3/4,,
{16}2,1,2,1,
3,8,3,7,
4,6,5,6,
4/7,,,,
{16}3/1-5[8:1],,,,
3,,2,,
6/8-4[8:1],,,,
7,,6,,
{16}5-7[8:1]/3-1[8:1],,,,
3/5,,,,
8,7/1,2/6,,
2/6,,,,
{16}4,3,2,1,
8/7,6,5,4,
3/1,2,3,4,
5,6/4,7/3,8/2,
{16}1,8,7,6,
5/4,3,2,1,
8/5,6,7,8,
1,2/8,3/7,4/6,
{16}5-1[8:1],,,,
2,,2,,
6/4-8[8:1],,,,
7,,7,,
{16}5/6-2[8:1],,,,
3,,3,,
1/4,8,7,6,
5/2,,,,
{16}6,,1<6[8:1],,
5,,1>4[8:1],,
4,,1,,
5,,6,,
{16}7,8,7,8,
6,1,6,2,
5,3,4,3,
{32}5,6,7,8,1,2,3,4,
{16}5b/1b,,,,
1/6,,1/6-1[8:1],,
,,2-6[8:1],,
,,7-2[8:1],,
{16},,3-7[8:1],,
,,8-3[8:1],,
,,4-8[8:1],,
,,8,,
{16}7,,6/1-5[8:1],,
,,1/5>1[16:17],,
{12},,6h,
,6,,
{12}6h,,5h,
,5,,
5h,,4h,
,4h,,
{16}1/4,,,,
4/7,,4-8[8:1]/7<4[8:1],,
,,4/7,,
,,2-4[8:1]/6-4[8:1],,
{16},,2-8[8:1]/6-8[8:1],,
,,2/6,,
,,2/6,,
2/6,,,,
{16}4/8,,4-8[8:1]/8-4[8:1],,
,,4/8,,
,,2/6,,
2/6,,,,
{16}1/5,,2/6,,
3/7,,4/8,,
3/7,,2/6,,
1/5,6,3/7,8,
{16}1/5b,,,,
2/7,,6,5,
7,,4,5,
3,,7,8,
{16}6,4,5,3,
6,,1/8,,
2,3,4/7,6,
1/5,,1,,
{16}2/7,,3,4,
1,,5,,
6,5,8,1,
7,,1/8,,
{16}2,4,3,7,
5,6,3,4,
1,8,1,8,
2b/7b,,,,
{16}1/5,,3/4,,
4/5,,5/6,,
6/7,,7/8,,
1/8,,1/8,,
{16}4/2,,6/3,,
1/8,,4/6,,
1/2,,3/5,,
8/7,,6/1,,
{16}2/8,3,4,5,
6,7,8,1,
5,4,3,2,
1,8,7,6,
{32}1b,2,3,4,7b,6,5,4,
1b,2,3,4,8b,7,6,5,
1b,2,3,4,5b,6,7,8,
1b,2,3,4,5b,6,7,8,
{16}1/5bs1[8:11],,,,
,,,,
,,,,
,,,,
{16},,,,
,,,,
,,,,
,,,,
{16}3h[4:1]/7z3[8:11],,,,
,,,,
,,,,
,,,,
{16},,,,
,,,,
,,,,
,,,,
{16}5h[4:1]/1z5[4:5]*z5[4:5],,,,
,,,,
,,,,
,,,,
{16},,,,
,,,,
,,,,
3/4-8[8:5]*-8[8:5],,,,
{16},,,,
,,,,
,,,,
,,,,
{24}1,8,1,8,1,8,
1,8,1,8,1,8,
2,8,2,8,2,8,
2,8,2,8,2,8,
{24}1,8,1,8,1,8,
1,8,1,8,1,8,
2,8,2,8,2,8,
2,8,2,8,2,8,
{24}1,8,1,8,1,8,
2,8,2,8,2,8,
1,8,1,8,1,8,
2,8,2,8,2,8,
{24}1,8,1,7,1,7,
2,7,2,8,2,8,
1,8,1,7,1,7,
1s5[8:3]*v3[8:3],8,1,8,1,8,
