&title=ヒトリゴト
&artist=ClariS
&first=0
&des=Melt℃
&clock_count=4
&lv_5=13
&inote_5=(165)
{1},
{8}4/5,4/5h[1:1],,,
{4}4,4,3,2,1,2,
{8}1/8,1h[4:1]/8,,7,6h[4:1],,
{8}5,4,3/6,2h[4:1],,4,,6,7<5[8:1]/1>3[8:1],,,,
{8}5/4h[16:20],,5,,5,,6,,7,,7,,1/8h[4:1],,
{8}1,1/2h[2:1],,8,8,7,7,6,6,5,,5,4/6,3/7,2>5[16:2]/8<5[16:2],,,,
{8}4pp8[16:6],,6,7,8,7<4[4:1],,4>1[4:1],,1<7[16:3],,6h[16:6],,,,,
{8}4qq1[16:6],,5,6,7,8<4[4:1],,4>8[4:1],,8<4[4:1],,4>8[4:1],,,,,
{8}6pp2[2:1],,5,4,2>7[8:3],2,,7V52[8:3],,2,,1h[8:3],,,
{8}7q4[16:3],,5,,5,4,3,6h[4:1]/3,,7h[4:1],,8h[4:1],,2p5[16:3],,,,,
{4}5/4>1[4:1],6,6,6/1q5[4:1],7,7,7/4>1[4:1],6,6,6,6/1p5[4:1],7,7,6,6,
{4}3b/5b,6,4/7,8/1,2/6,3/7,1pp3[16:3]/8qq6[16:3],
{8},,,3,5,4,6,5,7,8,2h[8:1],4p7[16:3],,2b,3h[4:1],,,,
{8}2>7[2:1],,,,7<2[2:1],,,,1h[2:1],,,,4h[2:1],,5,6,7h[4:1],,
{8}8h[4:1],,6h[4:1],,1h[4:1],,5h[4:1],,2h[4:1],,4h[4:1],,3,,
{8}5b,,4/6-8[8:1],5,6/4,,6/4-2[8:1],5,6/4,,6/4,5,4/6<2[16:4],
{16}3h[16:4],,,,,,
{8}4b,,5/3-1[8:1],4,3/5,,3/5-7[8:1],4,3/5,,3/5,4,3/5<8[16:3],4,3,2h[8:1],,,
{8}1b>4[8:1]/7b<5[8:1],,,,8b<5[8:1]/2b>4[8:1],,,,
{8}6/3,4,2/5,7,4b>1[8:1]/6b<8[8:1],,,,
{8}7h[4:1],4,4h[4:1],,5h[4:1],,4h[4:1],,3h[4:1],,2h[4:1],,1,,
{8}7bq4[4:1]/8b>3[4:1],1b/6b,,,,,
{8}4/5,,3/7,4,3/1,2,3/7,4,5/3<6[8:1],2,3b/6b,,1/7-3[8:1],3,1,2,4,3,
{8}5,6/4,5,7/3,2,4,5/4>1[8:1],2,4b<7[8:1],6,8b-4[8:1],2,4bw8[16:3],6,4b,,6h[4:1],
{8}8,1,2,3,4h[4:1],6,7,8,1h[16:6],5,6,7,,
{8}8-5[8:1]*<6[8:1],,8b-3[8:1]*>2[8:1],,8bv5[8:1]*<6[8:1],,8bv3[8:1]*>2[8:1],,8b,,
{8}4/7,6,5/3,4pp4[16:3]*qq4[16:3],,,,,6,
{8}6>3[8:1],3,2,2h[8:1],4,7-2[8:1],3,4/7b-4[8:1],,7b<4[8:1]*>2[8:1],,7bw3[8:1],,7b,,
{8}2/4,3,2/6,7,1/8,2,7,1/8,1b-5[8:1]/8b-4[8:1],,1b>4[8:1]/8b<5[8:1],,1b-5[8:1]/8b-4[8:1],,1b/8b,,
{8},6<3[16:5],4,3>6[16:5],4,,4,3,4,5,3pp1[16:6],5,5<8[8:1],,,,
{8}2h[4:1],,4,5,6h[4:1],,8,1,2b,,3b<6[4:1],,6b<1[4:1],,1b>4[4:1],,
{8}5h[4:1],,,3,7h[4:1],,,1h[8:1],3h[4:1],,4h[4:1],,5q2[8:1],,4h[4:1],,
{8}1h[4:1],,,8,7,,6b,6bq3[16:6]*<3[16:6],,,,,,,
{8}8<5[8:1]/2,1,8/3,2-6[8:1],3,2/8,5,4,
{8}1,3,6b/4>1[8:1],,4b/8-4[8:1],,8b/2-6[8:1],,2bv5[8:1]/8bv5[8:1],,
{8}2b<6[16:8]/8b>4[16:8],,,,,,,
{16},5bpp5[16:5]*qq5[16:5],
