&title=Under The Moon
&artist=void(Mournfinale)
&first=0.163
&des=RefIcul. with"〇"
&lv_5=13+
&des_5=RefIcul. with"〇"
&inote_5=
(175){4},,,,{1}5h[2:7]/3h[2:7],
,,{4},,{8},B2,
B6,C,
{4}6/4h[1:1],,,2,
{8}3h[1:1],,,,,,,4,
5h[4:3],,,6,,,{4}7<3[2:1],
{8}7h[2:1],,,,,B3,B7,C,
{1}2h[2:1]/8-4[2:1],
1-5[2:1],
7h[2:3]/5>1[2:1],
{8},8,,,{2}6,
6/5>2[8:3],{8}6,7p3[8:3],,2,
{4}1>4[8:3],{8}1,8,7<4[8:3],{16},,,,3,2,
{4}1,{8}1h[2:1],3,{4}4,{8}5h[2:1],2,
3,,,4,{16}6,7,{8}8,{4}3/1,
3/4<7[8:3],{8}4,3,{4}2q6[8:3],{8}2,7,
{4}8<5[8:3],{8}4,3,{2}2>5[8:3],
{8}E6,E7,E8,E1,E2,E3,E4,E5,
6x/5x-1[8:1],{16},,,,8x,7,{8}6,{16}1,3,{8}2w6[8:1],8/4,
{4}2b,C,{8}7x-4[8:1],8,7/1-5[8:1],2,
1/8-4[8:1],7,8/1,2,{4}2-5[8:1]*-6[8:1],2,
7/4h[4:1],5,{8}7-5[8:1],8,7/1-5[8:1],2,
1/8-4[8:1],7,2/8,1,{12}1,3,2,4,5,6,
{4}8-3[8:1]/7-4[8:1],8/7,{8}2x/1x-5-2[4:1],4/5,{4}1x/6,
{8}7-3[8:1],3-7[8:1],{4}7<1[24:5],{48},,,,,,,,,,,,A8/D1,D8,A7,D7,A6,D6,{8}A5,
{4}4x-7[8:1]/3x-8[8:1],4/3,{8}7x/1x-5[8:1],8-4[8:1],1-3[8:1],8-6[8:1],
1,8,4,5/3,{12}6,8,7,1,2,3,
{8}5/4-1[8:1],6,4,7,,8,{4}1/7,
1/8-5[8:1],{8}8/2,3,,4,{4}5/3,
{8}5/6h[4:1],7,8,1/5,,2,1/2h[4:1],3,
4,5/8,{4}6x/7x-4[8:1],{8}8,1,{4}2x/3x,
{8}1/8-5[8:1],2,8,3,,4,{4}5/3,
5/4-7[8:1],{8}4/3,2,,6/1,{16}4x/8,3x,2x,1x,
{8}8x/4x,7x/4x,6x/4x,1x/8x,,,2x/8x,8x/5x,
8x/3x,8x/4x,{16},,4/8,3/7,{4}6-3[16:1]/2-7[16:1],6/2,
5/1>4[4:1],4<7[4:1],{2}7>2[4:1],
{4}6>3[4:1],3>8[4:1],8<5[4:1],{8}3,2,
{4}1h[4:1],B5/B4,{8}8/5,1,2,3,
{4}4/5pp4[4:1],{8}4>6[8:3],4,,,4,3,
{4}2/5,1/8,{8}7/4,{16}6,5,{8}6,7,
{4}1/8,5/4,{8}3/8,{16}2,1,{8}2,3,
{12}4/5,6h,6h,5h,7h,3h,3h,4h,2h,5h,6h,7h,
{1}4/8h[1:1],
{32}Cf,{4},,,{16},,,{32}B6,
{4}B5,,,7/5,
{32}6p4[4:3],,,,,,,,,,,B4,{8}B3,,,{4}3,
{32}2qq5[4:3],,,B2,{8}B1,,,,,,,{4}C,
,,3/4,
5,{8}4,6,{16},,,,5/6,4,3,2,
{8}1x/5,2x/6,3x/7,8/4x,,,8/4x,7/3x,
6/2x,1x/5h[8:3],,,{4}4,{8}4,5,
{4}3/5,3/5,{8}3/5,4,6,5,
{4}7/5,7/5,{8}7/5,6,4,5,
{4}2/4,2/4,{8}2/4,3,1,4,
{4}8/4,8/4,{8}8/4,7,5,6,
1b/7,2,3/8,7,1/6,2,3/8,7,
6/2,3,4/7,6,5/2,3,4/7,6,
{12}6x,6,7x,7,8x,8,1x,1,2x,2,3x,3,
{8}4x-8[8:1],{16},,,,1x,2,{8}3,{16}6x,4,{8}5w1[8:1],7/3,
{4}5b,C,{8}2x-5[8:1],1,2/7-4[8:1],8,
7/1-5[8:1],2,1x/5x,6,{4}7-4[8:1]*-3[8:1],7,
2/5h[4:1],4,{8}2-4[8:1],1,2/8-4[8:1],7,
8/1-6[8:1],2,7/1,8,{12}8,6,7,5,4,3,
{4}1-6[8:1]/2-5[8:1],1/2,{8}7x/8x-4-7[4:1],5/4,{4}8x/3,
{8}2-6[8:1],6-2[8:1],{4}2>8[24:5],{24},,,,,,1bx,2x,3x,4x,,,{4}5x-2[8:1]/6x-1[8:1],
5/6,{8}2x/8x-4[8:1],1-5[8:1],8-6[8:1],1-3[8:1],
8,1,5,4/6,{12}3,4,2,5,6,7,
{1}8b/Ch[2:7],
E7,
E5,
{2}E3,B7/B6/E7/B2/B3/E3,
{4}4>1[4:1],{8}5,6p2[4:1],,,{4}8-4[8:1],
8/1x,{8}1-4[8:1],5-8[8:1],,,,5,
{4}7qq8[8:5],4>1[8:3],{8},,,,8/1,
{16},,,,,,,,8x,7x,{12}2x/6x,3x/7x,4x/8x,
{4}5x/1x-5-3-7[8:3],1,{8}2,1,6x/8x-5[8:1],7,
2x/8x-3[8:1],1,{4}8x/6xh[4:1],{8}5,4/6,5/4h[4:1],{16}3,2,
{4}1,{8}3/8<5[8:1],1,{4}8/2,{8}2x/4x-1[8:1],3,
6x/4x-7[8:1],5,{4}4x/2x,{8}1>2-4[8:1],2,{4}3/1x<8-6[8:1],
1x/7,{8}5-8[8:1],5V31[16:3],{4}5,7,
6/1h[4:1],5,{8}4,3,7h[8:1],{32}5,4,3,2,
{8}6/1b-5[8:1],,,7b-4[8:1],,,{4}2b-5[8:1],
{8},8b-4[8:1],,,{4}1bw5[8:1],1b,
{8}8/2,{16}3,4,{8}2h[8:1],{16}6,5,{8}7h[8:1],{16}3,5,{8}1h[8:1],{16}8,7,
{8}6/1b-3[8:1],{16}5,5,{8}1-7[8:1],{16}4,4,{8}1>4[8:1],{16}5,5,{8}1,6,
7/2x-5[8:1],{16}8,8,{8}2b,{16}1,1,{8}4-8[8:1],{16}6,6,{8}4b,{16}5,5,
{8}1-5[8:1],6,{4}1b-3[8:1]/7b-3[8:1],1/7,{32}1bx/5x,2,3,4,5,6,7,8,
{1}1h[1:1],
{32}8,7,6,5,4,3,2,1,{4}8w4[4:1],{2}B8f,
{32}7b,6,5,4,{96},,,,{24}2b,3,,,5b,4,{96},,,,,,,,{32}1b,2,3,4,{96},,,,{24}7b,6,,,3b,4,{96},,,,,,,,{32}1bw5[1:1],
8/2,7/3,6/4,{8}5,
{1},
{1},
E
