&title=Der Schneid
&artist=Ωμεγα
&first=0.1
&lv_5=14
&des_5=
&inote_5=
(222){4},,,,{1}Ch[1:1]/1p7p5p3p1[4:27],
,,C,
Ch[1:1],
{2},,,,Cf,
{24}1x,8,7,6,5,4,3,2,1,8,7,6,
{4}5b,{12}2,4,3,{4}5-8[12:1],5,
2-6[12:1],2,7<4[12:1],7xh[4:1],
3v8[6:1],3-5[16:1],3,{32}1xv6b[8:1],2x,3x,4x,{8}5x,
{2}1b,{24}E1,E8,E7,E6,E5,E4,{4}2xh[4:1],
{8}6bpp8[16:1],6b,,,1b-4[16:1],1b,,,6b-4[32:1],
6b-3[32:1],,,2bx,2bx-7[16:1]*-5[16:1],,2x,
{16},,,,1,2,3,4,{8}7,7,2,2,
5/2,5,5,3/5,3-1b[16:1],3,,,7b,
7b,5b,5b,3b,3b,1b,1b,
6b,4b,5b,3b,{16}7bx,7bx,2bx,2bx,{8}1bx-5b[16:1],8-6[16:1],
1x,8x,,,2xh[8:1]/1xh[8:1],,,E7f/B7/A7/E5f/B4/A4,
{16},,,,,,,,3,4,{8}3,2/5,2/5,
3b,3b,1b,1b,7b,7b,5b,5b,
2b,8b,1b,7b,{16}3bx,3bx,6bx,6bx,{8}5bx-1b[16:1],4-2[16:1],
5x,4-8[16:1],,4x,{4}7x-3[16:1],{8}7x,1x>4[16:1],
,1x,{4}5x-8[16:1],{8}5x,4x,3x,2b-5[16:1],
,7,{4}7p4[8:3],2,{8}1,1-5[16:1],
,1,,7<4b[8:1],,7,{16}1,2,{8}3-1[16:1],
,3,8x-4[16:1],1x-5[16:1],,,,7/3,
{16},,7/3,6/2,{4}5-1[8:1]/1-5[8:1],{8}1/5/Cf,,,3x/8xh[8:3],
,2,2V86[4:1],{16}8,7,{8}6V42[4:1],,,7bxh[8:3],
,,,2x/4-1v7-4[8:3],,,,,6x,
6x-2[16:1],,6x/1-4[16:1]*-6[16:1],,1x,,3bv5[8:1]/7bv5[8:1],
,3x/7x,,1x,{4}1xw5[16:1],{32}B1,Cf,{16}B5,,,,,,,{8}5/7,
5,6/5,6,6-4[8:1],4-8-2[4:1],
,2-7b[8:1],{4}2,{8},,6x/3x,4/2,
4,3/4,3,3-5[8:1],{4}5-1-7[4:1],{8}7-2b[8:1],7,
,,,3x/6x,7x,8x,1x,2b-5[16:1],
,2,7-2[16:1],3-6[16:1],7,3,8,8h[8:7],
{4}E3/B3,E4/B4,E5/B5,E6/B6,
{8}7/1,7,7/4,7,{16}7,5,7,5,7>7<6>5>4>3>2<1<8<7[1:1],5,7,5,
,,,,,,,,,,,,,,,,{2}2bxs6b[4:13],
B7/E7,
A4/E5/D5,E1/A8/D1,
{1}E3/B2/A2,
{8}Ch[2:1],{16},,,,,,,,,,,,1,2,
{1}3bs7b[4:9],
{2}E6/B5/A5,B1/B8/E1,
{8}B3/E4/B4,{16},,,,,,,,,,,,3,2,
{8}1,6,5h[2:1],8h[8:3],,,,,{2}5b/8bz4b[4:13],
B3/E3/A3,
B7/D7/A7,E2/E1/A1,
{8}Ch[2:1],,,,,,,E2,
B2,{16},,,,,,,,,,,,3,2,
{2}1bs5b[2:3],6,
A7/B7/E8,Ch[4:1],
{8}3,3,6/3,6,2/6,2,2/7,7,
8b/1b,1b-4[16:1]/8b-5[16:1],,1b/8b,,2b<7[8:1]`7b>2[8:1],{4}7bp5b[1:7]/2bq4[1:7],
{1},,,,,,,{2},{4}6/3,
2/7,
1h[4:1],6,{6}4/7,{12}5,3,4,3,
{6}6,{12}2,4,3,8x,8x,8x,6,6-2[12:1],,,{4}6/8h[4:1],
3,{6}5/2,{12}4,6,5,6,
{6}3,{12}7,5,6,1x,1x,1x,3,3h[6:1],,,2,
4,3,6,5,7,3,4,2,7,5,6,
1,4,3,8-4[12:1],5,6,{4}8x,2,
{24}7x/2h[8:1],6x,{12}5x,{24},,7x/2h[8:1],6x,{6}5x,{24}8x/1h[6:1],7x,6x,5x,,,8x/1h[6:1],7x,6x,5x,,,{1}8bz4b[2:1],
{4}1>4[16:1]/5b<8b[16:1],5b/1-5[16:1],{32}1x,Cf,,,,,,,{8}6,6h[4:1],
,2,3,5/4h[4:1],{16},,8x,7,6,1,2,3,
{4}4>1[16:1]/8b<5b[16:1],8b/4-8[16:1],{32}4x,Cf,,,,,,,{8}2,2h[4:1],
,6,7,1/8h[4:1],{16},,4x,3,2,5,6,7,
{4}8<5[16:1]/4b>1b[16:1],4b/8-4[16:1],{32}8x,Cf,,,,,,,{8}7,7h[4:1],
,3,2,8/1h[4:1],{16},,5x,6,7,4,3,2,
{8}1b/8b,8-4[8:1],8,8/2b,2-6[16:1],2,2/7b,7-4[16:1],
7,7/1b,1-6[16:1],1,{4}1/8bh[8:1],{8}6x,5x/7x,
{4}4x>1b[16:1]/8x<5[16:1],8b/4-8[16:1],{32}4x,Cf,,,,,,,{8}7,7h[4:1],
,3,2,8/1h[4:1],{16},,5x,6,7,4,3,2,
{4}1b>4[16:1]/5<8b[16:1],5b/1-5[16:1],{32}1x,Cf,,,,,,,{8}3,3h[4:1],
,7,6,4/5h[4:1],{16},,1x,2,3,8,7,6,
{4}5b<8[16:1]/1>4b[16:1],1b/5-1[16:1],{32}5x,Cf,,,,,,,{8}6,6h[4:1],
,2,3,5/4h[4:1],{16},,8x,7,6,1,2,3,
5b,4x,5x,4x,{8}5x,{16}2b,4,2,4,{8}2,{16}7b,5,7,5,
{8}7,{16}2b,1,2,1,{8}2,{4}7b/3b,5b/1b,
{16}6b,2b,6b,2b,{4}6b-2-6b[2:1],{8},,,,3,
3,7,7,1,1,5,5,
{16}3,4,3,4,3,4,3,4,3,4,3,4,3,4,3,4,
3x,2,1,8,7,6,5,4,8x,7,6,5,4,3,2,1,
6x,7,8,1,2,3,4,5,6,7,8,1,2,3,4,5,
8x,7,6,5,4,3,2,1,8,7,6,5,4,3,2,1,
{24}3b,4x,5x,6x,7x,8x,1x,2x,3x,4x,5x,6x,7x,8x,1x,2x,3x,4x,5x,6x,7x,8x,1x,2x,
3x/7b,6x,5x,4x,3x,2x,1x,8x,7x,6x,,,{12}3x/4x,3x/4x,3x/4x,2x/5x,2x/5x,2x/5x,
{1}1bx/6bxp4b[2:1],
{12}6x/3x,7x/2x,8x/1x,6x/3x,7x/2x,8x/1x,6x/3x,7x/2x,8x/1x,6x/3x,7x/2x,8x/1x,
{4}5bx/4bx,{12}7-4[12:1],,1-5[12:1],{6}7,{12}1,8-4[12:1],,2-6[12:1],
{6}8,{12}2,7-4[12:1],,3-8[12:1],{6}7,{12}3,6-3[12:1],,,{4}6b/2b,
8/4,{12}7x,6,5,1x,2,3,
8x,7,6,2x,3,4,7x,6,5,1x,2,3,
{4}8b,{12}1x,2,3,5x,4,5,2x,3,4,
6x,5,6,3x,4,3,7x,5,7,2x,4,2,
{2}Cf/B7/B5/B6/B8/B1/B2/B3/B4,{6}6,{12}6,5,,5,
{6}4,{12}4,3,,3,{6}2,{12}2,1,,,{2}B6/B5/B4/B3/B2/B1/B8/B7/Cfh[4:1],
{12}6,4,4,7xh[16:1],{24},{8}5xh[16:1],
{16}6,,,4,5,,,6,{12}6b,3b,5b,2b,4b,1b,
{4}3b-6b[12:1],2,{6}7/5,6/4,5/3,
{12}2x,1,8,5x,6,7,3x,2,1,5x,6,7,
{24}3x/8xh[8:1],4,{12}5,{24},,3x/8h[8:1],4,{6}5,{24}2x/7h[6:1],3,4,5,,,2x/7h[6:1],3,4,5,,,{1}1bx,
2bp8b[4:21]`6p4[4:21],
,,,,,{8}2/5,
{16}3,4,{8}3,7/4,{16}6,5,{8}6,3/8,{16}2,1,
{8}2,6/1,{16}7,8,{8}7,{4}5-7[16:1]/4-2[16:1],{8}4b/5b,D1f/A8/D8/A1/D2,
,,8<6[16:1],{16}2x,2x,{8}8-4[16:1],{16}3x,3x,{8}8,1bqq5b[8:3],
{16},,,,,,,,,,8x,7,6,2,3,4,
{4}1bp5[16:1],{8}1<7[16:1],{16}4x,4x,{8}1-5[16:1],{16}3x,3x,{8}1,2bqq4b[8:3],
{16},,,,,,,,,,5x,6,7,3,2,1,
{4}4bq8[16:1],{8}4<6[16:1],{16}1x,1x,{8}4-8[16:1],{16}2x,2x,{8}4,3bqq8b[8:3],
{16},,,,,,,,,4x,3,2,{12}1,{24}5x,6,{48},{16}7,
{8}8b/1b,1,1,1/6b,6,6,6/3b,3,
3,3/5b,5-8[16:1]*-2[16:1],5,{4}5x,7bx/3bx,
{16}1b,1,1,1,{8}1,{16}2b,2,2,2,{8}2,{16}3b,3,3,3,
{8}3,{16}4b,4,4,4,{8}4,{12}6b,5b,6b,3b,4b,3b,
{6}7bx-5[24:1],1bx-3[24:1],8bx-4[24:1],1b,7b,{12}3b,4b,
{6}2bh[12:1],1bh[12:1]/8bh[12:1],6bh[12:1]/5bh[12:1],{12}7b,7b,8b,8b,1b,1b,
{1}2bz6z2b[4:15]*s6s2[4:15],
,,,Ch[2:1],
E
&lv_6=14+
&des_6=MeowHell
&inote_6=
(222){4},,,,{1}5h[1:2],
1xh[1:3],
,7xh[1:1],
,6xh[1:1]/2xh[1:1],
,1xp7[2:1],
{4}6/4,2h[6:1]/4h[6:1],{6}1/8,{12}7,5,,5,
{4}8h[6:1],{12}2,,2,{6}4,{12}4,5-2[12:1],,,{4}5/6,
{12}7,,7,{6}8,{12}8,1x-5[12:1],,,{4}1/2,
7pp5[4:1],{2}1xh[4:1],
{8}2b/4x,2b/4x,{32}A7,E7,B6,B5,{8}E5,3x/1b,1b/3x,{16},,5,6,
{8}4b/7x,4b/7x,{12}3,4,2,{8}5b/1x,1x-5[16:1]/5b-1[16:1],,Cf,
{16},,,,6,5,{8}6,7/4,8,2/5,1,
7/4b,{16}6,5,{8}6,2/5b,{16}3,4,{8}3,{4}2bh[16:1]/7bh[16:1],
{8}8bx/1,8bx/1,8bx/2,8bx/2,8bx/3,8bx/3,8bx/4,8bx/4,
8bx/5,8bx/5,6/8bx,6/8bx,{16}8bx/6bx,7x/5x,6x/4x,3x/5x,{4}4x/2x,
{8}7x/8x,8x/7xh[8:5],,,B3f/B2,,,E6f/A6/B6/B5/A5/E2f/A2/B2/B1/A1,
,3h[8:1]/4h[8:1],,5/2,{16}6,5,{8}6,7x/1x,8x/1x,
{16}1b,8,1b,8,1b,7,1b,7,1b,6,1b,6,1b,5,1b,5,
1b,4,1b,4,1b,3,1b,3,1bx/4bx,2x/5x,3x/6x,4x/7x,{4}5x/8x,
{8}4/3,5b/2b,,5/6,{4}4b/7b,{8}2/1,8b/3b,
,7/8,{4}1b/6b,{8}5b/4,3b/6,2-6[8:1]/7b-3[8:1],1b/8,
{16},,,,,,E3,B3,{8}B4,E7/B6,B1/B2,5x-1[16:1],
,2-6[16:1],,7h[8:1],{16},,,,3,4,{8}2-5[16:1],
,2,8,8-4[16:1],,2-8[16:1],2,5,
{16},,6,5,{8}6,7/4,3,2,1,8bz4[24:5],
,7,7,{16}E7,B6,{8}B5,E3/B3,B8/B7,1bx,
,7/5,6/4,5/3bp1[4:1],,,,,8/7b-3[16:1],
8,,1b>4[16:1],,,,7b-2[16:1]/6b-3[16:1],
,7x/6x,,4bx/1bx,{32},,,,1,8,7,6,{8}5-8[16:1],3bh[16:1],
,,2/1,2,2/4-2[8:1],2-8[8:1],,7x-3-5[4:1],
,7x,{4}1xw5[8:1],{8}1x,,,7/8,
7,7/5-7[8:1],{4}7-1[8:1],2x-6-4[4:1],{8}2x,8xh[4:1],
,,{4}B2/B3/E3,{8}7/5,6/4-1[8:1],5/3,4b/2,
,,4/7,7v4[8:1],{4}7/4v1[8:1],{8}2,2,
8x-4[16:1],8x,3-7[16:1],3,6-4[16:1]*-2[8:1],6,,,8/1,
8/1,6/3,6/3,{16}5,4,5,4,6,3,6,3-5[8:1],
{2}7qq4[16:9],2-5b[16:1],
2b/7bh[#1.891891],5-2[16:1],
1-3[16:1],{8}4v2[0.2703##0.0676],,,,{2}5/1q3[2:1],
C,
4/8p6[2:1],{8}C,{16},,,,E3,B3,
{2}5bh[4:5]/B4,8z4[8:1],
3xs7s3b[4:3],C,
{8}8xqq4[2:1],{16},,,,,,,,,,,,A3,E3,
{8}E2,E6/B6,B1/E1,E8/D8,,2x,5,5,
4/5bh[8:15],4,4,4,3,3,3,3,
2,2,2,2,1,1,1,1,
5/1-4[2:3],5,5,5,6,6,6,6,
7,7,7,7,8,8,8,{16}8,1,
{8}8bh[2:3],2,2,2,3,3,3,3,
4,4,4,4,5,5,5,5,
5/7x,5,5/7,5,5/1x,5,5/1,5,
5b/6b,7b/4b,,2b/1b,,8b/4b,{4}6bpp8b[1:7]/2bpp4b[1:7],
{1}B7/B8/B3/B4,
{2},,,,,,,,,,,,,E7/B6/B5/E3/B3/B4,
{4}7b/3b,8,{12}8,1,7,1,8,2,
{6}8,{12}3,4,2,4,3,5,3,4,,,{4}7,
{12}7,8,6,8,7,1,8,,4,
5,3,5,4,6,4,5,3,5,3,6,4,
7,5,6,2,4,3,8,6,7,1,3,2,
6,5,7,3,4,2,{24}8,7,{12}6,2h[6:1],8-6[12:1],{24},,,,1x/8-4[12:1],
2,{12}3,{24},,1x/8<6[8:1],2,{6}3,{24}1x/8v5[8:1],2,3,4,,,8x<8b[12:7]/1xV75V31[2:1],2,3,4,,,{1}8bx/1bx,
{8}1b-3[12:1],{16}6,6,{8}1-5b[12:1],{16}7,7,{8}1-3[16:1],8-4[16:1],1b,8b<5b[24:7],
,1,2,3,{16}E4,B3,B2,E2,E6,B6,B7,E8,
{8}8bx-6[12:1],{16}3,3,{8}8-4b[12:1],{16}2,2,{8}8-6[16:1],1-5[16:1],8b,1b>4b[24:7],
,8,7,6b-2[8:1]*-1[8:1],,,,,1bx-3[12:1],
{16}6,6,{8}1-5b[12:1],{16}7,7,{8}1-3[16:1],8-4[16:1],1b,8b<5b[24:7],
,1,2,3,{16}E5,B4,B3,E3,E6,B6,B7,E8,
{8}8bx/2b,{16}3,4,{8}3,7b/2b,{16}6,5,{8}6,3b,{16}5,4,
{8}5,2b/6b,6/2,6/2,7bv4b[16:1],8-3[16:1],7b,8b,
{16},,,,3x/5bx-1b[12:1],,,2,{8}5-7[16:1],4-8[16:1],5b,4b>1b[24:7],
,5,6,7,{16}E8,B7,B6,E6,E2,B2,B3,E4,
{8}4bx-2[12:1],{16}7,7,{8}4-8b[12:1],{16}6,6,{8}4-2[16:1],5-1[16:1],4b,5b<8b[24:7],
,4,3,2b-5[8:1]*-6[8:1],,,,,5bx-7[12:1],
{16}2,2,{8}5b-1b[12:1],{16}3,3,{8}5x-7[16:1],4x-8[16:1],5b,4b>1b[24:7],
,5,6,7,{16}8b,7,6,5,8b,1,2,3,
4bx,6,4,6,4,6,3b,6,3,6,3,6,2b,6,2,6,
2,6,1b,6,1,6,1,6,{4}8b>3[16:1],B6f/E7/B7/A7,
{16}4b,4b,4b,4b,{4}4bz8b[4:1],{2}Cf,
{8}1/4-6[16:1],1,1,1,1/8-6[16:1],1,1,1,
1/5pp8[2:1],1,1,1,1,1,1,1,
1/7qq4[2:1],1,1,1,1,1,1,1,
{16}2x,6,2,6,2,6,2,6,2,6,2,6,2,6,2,6,
3x,7,3,7,3,7,3,7,3,7,3,7,3,7,3,7,
1x,5,1,5,1,5,1,5,1,5,1,5,1,5,1,5,
{24}2b,3,4,5,6,7,8,1,2,3,4,5,{12}8b,8bx,8bx,6b,6bx,6bx,
{2}7bv4b[4:1],B1/E1/E3/B2/E2f,
{12}7b,8b,6b,2b,1b,3b,7b,5b,6b,2b,4b,3b,
{4}8b<5[12:1],{12}2b,,2,{6}4b,{12}4,8b,,,{6}7b,
{12}7,6b,,6,{6}5b,{12}5,4b,4,4,
4/7h[4:1],,,,,2-8[12:1],{6}6-4[12:1],{12}2,6,,,7,
8,7,2,1,2,3,4,3,5-8[12:1],,,{4}5/3,
{12}7,5,5,6,4,4,5,3,3,
7,7,5,8,8,4,1,1,3,{96}7b,,,6,,,{32}5,4,3,2,1,8,
{4}7x/3x-6[8:1],8,{6}2,{12}5,3,4,3,
5,4,5,2,4,2,6,4,6,1-3[12:1]*-5[12:1],,,{4}1b,
7,{12}4,6,5,{96}E4,,,B3,,,{32}B2,E2,{96},,,,,,,,,,,,{12}7x,
5,{48},{16}7,{12}3,5,3,8b,5b,6b,1b,4b,3b,
{24}7x,6,{12}5,2,2,8,8,{24}1x,2,{12}3,7,7,1,1,
8x,8,6,7,5,6,{24}4x,3,{12}2,7h[6:1],1-3[12:1],{24},,,,8x/1-5[12:1],
7,{12}6,{24},,8x/1>3[8:1],7,{6}6,{24}8x/1v4[8:1],7,6,5,,,1x>1b[12:7]/8xV24V68[2:1],7,6,5,,,{1}1bx/8bx,
Ch[8:7]`6x>4q6<2p8>4[2:11],
,Ch[8:7],
,Cfh[8:7],
{8},,,,,,,,7x/5x,
6,6,2x/4x,3,3,8x/6x,7,
7,3x/1x,2,2,4x/7x-4[16:1],{16}6,5,{8}7bx,1bxw5[16:1],
,Cf/B1/B5,,,1x-7[16:1],2x-6[16:1],1b>4b[24:7],2b,
,5,7,6,{16}5x,6,7,8,4x,3,2,1,
{8}7b-5[16:1],{16}2x,3,{8}7b-3[16:1],{16}1x,2,{8}7x-5[16:1],8x-4[16:1],7b,8b>3b[24:7],
,7,6,5,{16}4x,5,6,7,4x,3,2,1,
{8}8b<5[16:1],{16}3,4,{8}8x-4b[16:1],{16}2,3,{8}8bx<5[16:1],1bx>4b[16:1],8bx,1bx,
,7/5,8/1,2/4,{16},,5,4,6,3,7,2,
{8}8b,{16}5,6,{8}5,1b,{16}4,3,{8}4,7b,{16}4,5,
{8}4,2b,{16}6,3,{8}6,{4}4bz8b[16:1]/5bs1[16:1],5bx/4bx/Cf,
{16}2b-5b[16:1],1,2,1,{8}2x,{16}7b-4b[16:1],8,7,8,{8}7x,{16}2b>5b[16:1],1,2,1,
{8}2x,{16}7b<4b[16:1],8,7,8,{8}7x,{12}E2/B2,B6/E7,E4/B4,B8/B1,E3/A3,B7/A7,
{6}4xh[6:1],5xh[6:1],{12}3x,3x,{6}6b/4b,7b/8b,{12}2b,1b,
{6}3bh[6:1],6bh[6:1],4b,{12}5/4,5/4,5/4,5/4,5/4,5/4,
{1}4b>4[4:15]`5b>4>3>2<1<8<7<6>5>4b[4:15]*V31V75[4:13],
,,,Ch[2:1],
E
