&title=IMPACT
&artist=USAO feat.光吉猛修
&first=0
&des=Yuurika vs MAJiN
&lv_5=14+
&inote_5=(210)
{1},,
{4}Ch[2:3]/B2/B3/B6/B7,,,,,,8w4[8:1],,
{16}2x,1x,,3x,4x,,3,,
{8}4,3,25,4,3,4,25,3,4,3,25,
{8}4<8[8:5],3h[8:1],,2h[8:1],,1h[8:1],,2h[8:1],,
{8}3h[8:1]/4h[8:1],,5h[8:1]/6h[8:1],
{8},2h[8:1]/3h[8:1],,7h[8:1]/6h[8:1],
{8},2-8[8:1],2,6-4[8:1],6,3-7[8:1],3,8<5[8:1],8,
{8}4>1[8:1],4,8-4[8:1],8,
{8}3>1[8:1],3,7<5[8:1],7,4-8[8:1],4,6,6,
{16}1,7,1,7,2,6,2,6,
3,5,3,5,1h[8:1],,6,4,6,4,8b,,2b,,,,
{16}6h[8:1]/2,,,,6h[8:1],,4,,6h[8:1],,8,,6h[8:1],,2,,
{16}6h[8:1],,4,,6h[8:1]/4v7[8:1],,,,6h[8:1]/4,,,,6h[8:1]/8,,1,,
2h[8:1],,6,,2h[8:1],,4,,2h[8:1],,8,,2h[8:1],,6,,
2h[8:1],,4,,2h[8:1]/4v1[8:1],,,,2h[8:1]/4,,,,8b,,8b,,
7/5h[8:1],,6,,2/4h[8:1],,3,,4h[8:1]/8,,,,5h[8:1]/8,,7,,
1/4h[8:1],,2,,3h[8:1]/8,,,,2h[8:1]/8-4[8:1],,,,8b/1h[8:1],,,,
8-5[8:1]*z4[8:1],,,,8b,,,,36,,36,,2,7,2,7,
B2hf[16:6]/B3h[16:6]/B6hf[16:3]/B7hf[16:3]/Cf,,,,,,,,,,,,,,,,
{16}1x-5[8:1]/6hx[4:1],,,,1b,,7,,8-4[8:1],,8,,2>5[8:1],,2,,
7-3[8:1],,7,,1-4[8:1]*-6[8:1],,,,1b,,,,6x>3[8:1],,6x,,
2<7[8:1],,2,,4-8[8:1],,4,,2-5[8:1],,2,,7<4[8:1],,7,,
2,,1,,2-5[8:1],,,,2/5-8[8:1]*-1[8:1],,,,,,,,
2-4[8:1],,4,,2-6[8:1],,6-2[8:1],,2,,,,,,,,
7-5[8:1],,5,,7-3[8:1],,3,,7-5[8:1],,1,,7,,3,,
3/4x,,3/4x,,25,,25,,3,4,2,5,1,6,8,7,
8b,1,2,3,45,6,7,8,1/2b,3,4,5,6/7h[4:1],,,,
1h[8:3],,,,7,6x,5hx[4:1],,1,2x,3hx[4:1],,6,7x,8hx[4:1],,
4,3x,2hx[8:1],,5<1[4:1],,,,1>5[4:1],,,,5,,,,
1h[8:3],,,,4,5x,6hx[4:1],,8,1x,2hx[4:1],,5,6x,7hx[8:1],,
1V35[4:1],,,,5V71[4:1],,,,1,,,,5b,,,,
1-4[8:1]/8,,,,
{24}8/1,E1,C4,E5,,,
{16}8-5[8:1]/1,,,,
{24}1/8,E1,C4,E5,,,
{16}2-4[8:1]/1,,,,
{24}2/1,B1,C4,B5,,,
{16}7-5[8:1]/8,,,,
{24}7/8,B8,C1,B4,,,
{16}2>5[8:1]/6,,,,
{32}2/6,E7,B7,B8,E1,,,,
{16}7<4[8:1]/3,,,,
{32}7/3,E3,B2,B1,E1,,,,
{16}1b-5[8:1],,,,1bw5[8:1],,,,1b,,,,
{8},,4/7h[8:1],3,5/2h[8:1],6,3/7h[8:1],2,6/1h[8:1],7,
8h[8:1]/2,3,4h[8:1]/7,6,5h[8:1]/1,2,3h[8:1]/6,5,
14,14,25,25,36,36,47,47,
{16}5,8,4,7,3,6,2,5,
{32}1x,8x,7x,6x,5x,4x,3x,2x,1bx-4[8:1],,,,5bx,,,,
{8}1bx-6[8:1],,2-4[8:1]/1-5[8:1],3,
1-7[8:1]/2-6[8:1],,2-4[8:1]/1-5[8:1],,1-7[8:1]/2-6[8:1],,1/2,,
{32}2bx,E3,B3,B4,8bx,E8,B7,B6,4x-8[8:1],,3x,,2x,,1x,,8bx/4bx,,,,,,,,
{8}5x<8[8:1]/7x,6x,5x>2[8:1]/3,,5-8[8:1]/7,,5-2[8:1]/3,,5-1b[8:1]/7,,5bx/1bxw5b[8:1]/Cf,,Cf,,
2/6-1[8:1],,2-7[8:1]/6-3[8:1],3,2/6,,
7bx/B3/B4/E4f,,1b/E6f/B5/B6,,8b/E3f/B2/B3,,
1b/8b,2b/7b,1b-5b[8:1]/8b-4b[8:1],3bh[16:1]/6bh[16:1],1b/8b/Cf,,
{16}36,,27,,18,,1,8,1pp8[4:1],,,,8<4[4:1],,,,4w8[4:1],,,,,,,,,,,,
2-5[8:1],,2,,1,,8,,7-4[8:1],,7,,8,,1,,
2<7[8:1],,2,,3,,4,,5>2[8:1],,5,,6,,7,,
81,,7,,56,,4,,37,,37,,26,,26,,
1,2,3,4,8,7,6,5,4-7[8:1]/8-3[8:1],,,,4/8<4V28V64>8[2:11],,,,
4b>8V64V28<4b[4:21]/8b,,,,,,,,,,,,,,,,
,,,,,,,,,,,,,,,,
,,,,,,,,,,,,,,,,
,,,,,,,,,,,,,,,,
,,,,,,,,,,,,,,,,
,,,,,,,,,,,,,,,,
{32}3x/7x,4x/8x,1hx[32:13]/5hx[32:13],,,,,,,,,,,,,,4x/8x,3x/7x,2hx[16:7]/6hx[16:7],,,,,,,,,,,,,,
{16},,,,2xv5b[8:1]/6xv1[8:1],,,,Cf,,,,,,,,
3,,,,B8,,,,4,,5,,E1,,,,
6,,,,B1,,5,,4,,5,,E1,,,,
6,,,,B1,,,,5,,4,,E1,,,,
3x>8[16:3],,,8x<5[16:3],,,5x-2b[8:1],,5x-8b[8:1],,,,,,,,
3-8[8:1]/4-7[8:1],,,,A3/A4/D4f,,,,6-1[8:1]/5-2[8:1],,,,A6/A5/D6f,,,,
3>8[8:1]/4<7[8:1],,,,A3/A4/D4f,,,,6<1[8:1]/5>2[8:1],,,,A6/A5/D6f,,,,
5-2[8:1],,,,A5f/3-7[8:1],,,,5>2[8:1],,,,A5f/1w5[8:1],,,,
1b,,,,4x/5x,,36,,4z8[8:1]/5s1[8:1],,,,4b/5b,,,,
2h[2:1],,,,5,,6,,7h[4:1],,,,5>2[4:1],,,,
2<7[4:1],,,,7<4[4:1],,,,4>1[4:1],,,,1,,8,,
7h[2:1],,,,4,,3,,2h[4:1],,,,4<7[4:1],,,,
7>2[4:1],,,,2>5[4:1],,,,5<8[4:1],,,,8b,,1,,
2h[4:1],,,,8-4[8:1],,7,,6-3[8:1]*-1[8:1],,,,6,,,,
2-6[8:1],,1,,8-4[8:1],,,,8<5[8:1]*>3[8:1],,,,8,,,,
7q8[4:1],,,,8>7[2:1],,,,,,,,,,,,
3b-7[8:1],,,,2b-6[8:1],,,,1b-5[8:1],,,,1b,,,,
6x<1[8:1]*>4[8:1],,,,6x,,,,3x-7[8:1],,,,1x-4[2:1]*-6[2:1]/3x,,,,
,,,,,,,,,,,,2x<7-3<6[8:5],,,,
,,,,,,,,,,,,1x<3[2:1]*-4[16:7],,,,
,,,,,,,,,,,,2x-8<7-5[8:3]/8x-2>3-5[8:3],,,,
2x/8x,,,,,,,,,,,,5x>2v1>2[4:3]*<8v1>2[4:3],,,,
,,,,,,,,,,,,,,,,
7xpp8-5[2:1],,,,7x,,,,5x-3[8:1]*-8[8:1],,,,,,,,
2x-4-1-5-8-6[2:1],,,,,,,,,,,,,,,,
45,,3,,45,,6,,78,,78,,16,,,,
34,,5,,34,,2,,18,,18,,27,,36,,
25,,25,,36,,36,,47,,47,,38,,38,,
2,1,2,1,3,8,3,8,2,1,2,1,{32}2,3,4,5,6,7,8,1,
{16}2b/Ch[4:3],,,,,,,,,,,,,,,,
3,4,3,4,2h[8:1],,6,5,6,5,7hb[8:1],,1b,,,,
{16}1-3[8:1],,6,,1-5[8:1],,8,,1-7[8:1],,7-3[8:1],,1,,6,,
5-2[8:1],,6-1[8:1],,5,,6,,4>1[16:3],,5,,4/8,7,6,5,
4-7[8:1],,3,,2-5[8:1]/4,,1,,2/8-4[8:1],,7-5[8:1],,8,,7,,
3v5[8:1],,5-3>8[4:1],,3,,8-4[4:1],,7-5[8:1],,6,,7,,,,
8-6[8:1],,3,,8-4[8:1],,1,,8-2[8:1],,2-6[8:1],,8
,,3,,
4-7[8:1],,3-8[8:1],,4,,3,,5<8[16:3],,4,,5/1,2,3,4,
5-2[8:1],,6,,7-4[8:1]/5,,8,,7/1-5[8:1],,2,,1/3-7[8:1],,2,,
1w5[8:1]/3,,,,1,,,,2x/5x,3x,,6x,4x/7x,,,,
2-5[8:1],,5>2[8:1],,2-7[8:1],,7>2[8:1],,6h[4:1],,,,,,,,
37,,84,,1-6[8:1]/5-2[8:1],,,,15,,,,37,,6,5,
7-4[8:1],,4<7[8:1],,7-2[8:1],,2<7[8:1],,3h[4:1],,,,,,,,
62,,15,,8-3[8:1]/4-7[8:1],,,,84,,,,{24}8bx/2bx,7x/3x,6x/4x,5x,,,
{16}4x-8[8:1],,3,,5-7[8:1],,6,,1-3[8:1]*-5[8:1],,,,A1f,,,,
6-1[8:1]*v3[8:1],,57,,A6f,,,,2v5[8:1]*v4[8:1],,2,,A2f,,,,
6hx[2:1]/5x,,,,5-2[8:1],,5h[16:1],,5-1[8:1],,,,5qq2[2:1]*pp8[2:1],,,,
,,,,,,,,,,1b,,1b,,,,
1>6[4:1],,,,17,,8,,1<4[4:1],,,,1-5[8:1]/2,,,,
1<4[4:1],,,,4<1[4:1],,,,,,,,2,,,,
8<3[4:1],,,,82,,1,,8>5[4:1],,,,8-4[8:1]/7,,,,
8>5[4:1],,,,5>8[4:1],,,,,,,,7,,,,
1-3[8:1],,2,,8-5[8:1]/1,,7,,4-2[8:1]*-8[8:1]/8,,,,4b,,,,
7-4[8:1]*-3[8:1],,86,,7b,,,,2-5[8:1]*-7[8:1],,2,,2b,,,,
4>1[8:1]/8<5[8:1],,,,,,,,8>3[8:1]/4<7[8:1],,,,,,,,
{32}4h[4:1]/8,,,,,,,,8b,1,2,3,4,5,6,7,8bw4[8:1],,,,,,,,8,,,,,,,,
{16}2-5[8:1],,3,4,2,,7,,6-1[8:1],,5,,2-5[8:1]/6,,3,,
8-3[8:1],,7,,6/8,,5,,4-8[8:1]/6-2[8:1],,28,,46,,,,
1b,,1,28,3/7-4[8:1],,,,5-8[8:1]/7,,3,,2-6[8:1]/5,,1,,
2x,,,7x,8x<5[8:1],,1x,,2x/8x,,,4x,2x>5[8:1],,1x,,
2x/8hx[4:1],,,,4b,37,26,15,48,,2,,4-1[8:1],,5,,
4-7[8:1]/6,,5,,2/4-1[8:1],,3,,4-8b[8:1]/6,,5,,4b,,,,
1bw5b[8:1],,,,1b,,,,3b,,7b,8b,5b,,2b,1b,
4hb[8:3]
,,,,8hb[8:1],,,,{32}2b,3,4,5,8b,7,6,5
,1b/4,,,,,,,,
{16}1-5b[16:1]/5h[4:1],,,,1b,,7,8,6h[8:1],,3,4,2h[8:1],,1,,
8-3[8:1],,7,,6-1[8:1]/8,,5,,6,,2,,4,5,3,6,
{24}2h[8:1],,,7,6,5,34,,,{16}2,3,4/7-1[8:1],,1-5[8:1],2,3/7,,2,,
2x-4[8:1],,2x-8[8:1],,2x-6[8:1],,2x,,2x,,,,7,,8,,
1<3[4:1],,,,,,,,8-2-4-6[4:1],,,,,,,,
1V35[4:1]*V75[4:1],,,,,,,,,,,,46,,46,,
3b,7,5,6,3,7,4,5,2b,8,5,6,2,8,4,5,
{32}1hb[4:1],,,,,,,,5b,,6,,7,,8,,1b/5b,2,3,4,5,46,37,28,1bw5b[8:1],,,,,,,,
1b/Cf/B4/B5/B6/B1,,,,,,,,,,,,,,,,,,,,,,,,,,,,,,,,E
