&title=LeMU ~遙かなるレムリア大陸~
&artist=KAORI.
&first=0
&des=生体反応:
&lv_5=13+
&inote_5=(116)
{1},,,
{16}3h[8:1],,C,,B8,,A8,,,,,,,,,,
{16}4h[8:1],,E6,,E7,,A7,,,,,,,,,,
{16}3h[8:1],,C,,B8,,A8,,,,,,,,,,
{16}4h[8:1],,E6,,E7,,A7,,,,,,,,,,
{16}6h[8:1],,E7,,B8,,A1,,6,,,,6,,,,
{16}5h[8:1],,E5,,B3,,A2,,5h[8:1],,,,5,,,,
{16}6h[8:1],,E7,,B8,,A1,,6,,,,6,,,,
{16}5h[8:1],,E5,,B3,,A2,,5xs1b[32:4]/1x,,,,,,,,
{16}3b/7b,,6,4,5,,7,5,6,,1,2/8h[16:3],,,5,,
{16}16,,3,5,4,,2,4,3,,8,7h[8:1]/1h[8:1],,,71,,
{16}56,,4,5,3,,3,4,2,,6,5/7h[16:3],,,1,,
{16}34,,6,5,8xh[8:1],,1,,6,5,3,4h[8:1],,8,17,,
{16}6b/2b,,3,5,4,,2,4,3,,8,7/1h[16:3],,,4,,
{16}83,,6,4,5,,7,5,6,,1,2h[8:1]/8h[8:1],,,28,,
{16}43,,5,4,6,,7,5,6,,3,4/2h[16:3],,,1,,
{16}4/7-3[8:1],,6,4,7x,,8,,{24}8x,1x,2x,{16}4,4,5,5,6,6,
{16}8b^3[16:6],,,,,,,,,,7,,7,4h[16:3],,,
{16}2<6[16:7],,2,,,,,,,,3,,3,5h[16:3],,,
{16}6<3[16:9],,6,,,,,,,,6,,,5h[16:3],,,
{16}1x^7[32:3],,,,6q2[8:1],,,,3q5[4:1],,,,1,,,,
{16}7,,7,6,,6,8,,8^5[8:1],5,,5x,,,1h[8:1],,
{16}4,,2,3,,3,1,,1^4[8:1],4,,4x,,,8xh[8:1],,
{16}5,,7,5,6,4,,2-6[8:1],4,,4,2x,,,8,,
{16}1^4[32:4]/7^4[32:4],,,8,1xpp3[8:1]/7xqq5[8:1],,,,,,,,6,4,7,3,
{16}2bqq8b[8:1]/8b^5b[8:1],,,,,,,,1/4h[8:1],,3,,8^5[8:1],1,,,
{16}2qq8[16:2],,,,4h[4:1],,,,1-5[8:1],,5,,1,8,,,
{16}6h[8:1],,8,,1,5,2,4,3^6[8:1],,2,,1x,,,,
{16}3h[8:1],,1,,8,4,7,5,6,4,5x,3,6,2,8,,
{16}7bp2b[8:1]/3b^6b[8:1],,,,,,,,5h[8:1]/8,,6,,3^6[8:1],4,,,
{16}7p2[8:1],,,,5h[4:1],,,,8-4[8:1],,4,,8,1<2[16:6],,,
{16}5h[2:1],,,,,,,,,,34,,45,,56,,
{16}1/7h[16:3],,,5h[16:3],,,3,,2h[16:3]/8,,,4h[16:3],,,6<4b[8:5],,
{16}1h[8:7],,,,,,,,,,,,,,
{48}5b-1b[32:3],6x/2x,3x/7x,4x/8xh[48:9],,,{16},,,,8x-3[32:3],,6qq7[4:1],,8,,6,,,,
{48}1bx-6[32:3],2,3,4h[48:9],,,{16},,,,4x^7[32:3],,3pp2[8:2],,4,,3,,,,
{48}8bx-3[32:3],7,6,5h[48:9],,,{16},,,,5x-1[32:3],,6pp4[8:2],,5,,6,,,,
{16}2x-6[32:3],,,,6<4[32:6],,5,,4b,,,,8b,,8-4[32:3],,
{16}4,4,{48}8bx>6[4:1],,,,,,{16},,8/6xqq5[32:6],,,,1,,8h[4:1],,,,
{48}5bx-8[32:3],4,3,2h[48:9],,,{16},,,,1x<5[32:4],,2q4[4:1],,1,,2,,,,
{48}5bx^2[32:3],6,7,8h[48:9],,,{16},,,,8x-4[32:3],,7qq2[4:1],,8,,7,,,,
{16}3-7[8:1],,,,7,,1,,8b/2b,,6,5,7,,18,,3,4,
{16}2b<6[4:1]/5b,,,,6>2[4:1],,,,2,,8,,6V82[4:1],,,,
{16}2V46[4:1],,,,6V82[4:1],,,,2,,4,,6V48[64:13],,,,
{16}8V64b[64:9]*V24b[64:9],,,,,,,,2q6[8:1],,35,,6,,,,
{16}8b-4b[64:5],7,5b,3,,,1b-5b[64:5],2,4b,6,,,7-3b[16:1],,5,7x/3,
{16},,1,,2-6[16:1],,4,2x/6,,,8,,1h[8:1]/7h[8:1],,,,
{16}7b-4[32:3],,2-5b[32:3],,7b/8bq1[32:7],,2,,8b,,,,4-8[32:3],,,,
{16}3x-5-2-6[8:3],,,,6,,8,8,,,7,7h[16:3],,,8,,
{16}1/6-4-7-3b[8:3],,,,3,,1,1,,,2,2h[16:3],,,1,,
{16}3b/7b,,6,4,5,,7,5,6,4,1,2/8h[16:3],,,5,,
{16}16,,3,5,4,,2,4,3,5,8,7h[8:1]/1h[8:1],,,71,,
{16}56,,3,4,1,,1,4,2,7,5,4/8h[16:3],,,1,,
{16}34,,6,4,8xh[8:1],,1,,7,5,2,4h[8:1],,8,17,,
{16}6b/2b,,3,5,4,,2,4,3,5,8,7/1bh[16:3],,,4,,
{16}83,,6,4,5,,7,5,6,4,1,2bh[8:1]/8bh[8:1],,,2b/8b,,
{16}43,,5,4,6,,8,4,6,2,4,5/1bh[16:3],,,8,,
{16}65,,3,4,1xh[8:1],,7,,8,6h[16:4],1,3h[16:2],,,2b/7b,,
{16}3qq6[8:6],,E6,,E7,,E8,,,,,,,,,,
{16}4q5[8:6],,E4,,E3,,E2,,,,,,,,,,
{16}3qq6[8:6],,E6,,E7,,E8,,,,,,,,,,
{16}4q5[8:6],,E4,,E3,,E2,,,,,,,,,,
{16}4q5[8:6],,,,,,,,,,,,,,,,
{16}4q5[8:6],,,,,,,,,,,,,,,,
{16}4h[384:1],,,,,,,,,,,,,,,,
