&title=ZEUS
&artist=Blacky
&first=0
&des=Lacomxio
&lv_5=14+
&inote_5=(228){4},,,,{1}4h[1:1]/5<6z2[4:5],
,3h[1:1]/1>2z6[4:5],
,6h[1:1]/8<7s3[4:5],
,4h[4:3]/5s1[2:1],
{2}8/1>4[16:3],{16}8,7,6,5,4,3,2,1,
{8}8bh[4:1],5,5,7h[4:1],4,4,6h[4:1],3,
3,5,4,2,5,3,{16}4,6,4,6,
{8}3bh[4:1],5,5,2h[4:1],4,4,1h[4:1],3,
3,1,2,5,3,6,{4}7,
{8}8/1,8/1,2/8,2/8,3/8,3/8,8/4,8/4,
3/7,3/7,2/6,2/6,1b/5b,{16}8,4,1,5,1,5,
{12}2,2,6,3,3,7,4,6,5,7,7,3,
{16}6,5,4,3,6,5,4,3,7,6,4,3,7,6,3,2,
1h[4:1],8,7,6,{4}5h[4:1],7h[4:1],3h[4:1],
1b-5[8:1],1/7-4[8:1],7/3-7[8:1],3/8,
1<6[8:1],1>4[8:1],1-5[8:1],1,
8-4[8:1],8/2-5[8:1],2/6-2[8:1],6/1,
3-8[8:1]*-5[8:1],3,7-3[8:1],7/3,
{8}2/5,2/5,{4}1-5[8:1],8-4[8:1],7-3[8:1],
{8}5,5,6<1[8:1],1,{16},,2,3,4,5,,,7,
8,7,8,{8}6,{16}2,1,2,1,{8}3,5/4,6/3,
{16}2,7,1,8,2,7,1,8,2,6,2,6,1,2,3,4,
{4}5/8b-4[8:1],8/2-6[8:1],2/7-4[8:1],1/7,
8>3[8:1],5/8<5[8:1],4/8-4[8:1],8/2,
1-5[8:1],1/7-3[8:1],7/2-5[8:1],2/8-4[8:1],
8,{8}5/1,7/3,,8,{16}5,4,3,2,
7,8,7,8,{8}6,{16}2,1,2,1,{8}3,{16}5,4,6,3,
{8}7,{16}3,4,{8}2,{16}6,5,{8}7,1/2,{16}8,7,6,5,
4/3,,,5/2,,,{8}8/3,{16}6/5,,,4/7,,,{8}6/1,
{16}2,3,4,5,8,7,6,5,3,5,2,6,1,7,2,8,
{2}3b-7[8:1],{4}1/6,{16}4/3h[4:1],5,6,7,
8p4[8:1],,,2,{8}8,1,{16}2,4,{8}3,{16}6,5,{8}7,
{12}A4,A3,A2,8,7,6,{4}5/1,{16}1/7h[4:1],2,3,4,
{4}5-1[8:1],{8}5/3s7[8:3],2,{2}C,
{8}5h[8:1],{16}8,6,1-5[8:1],7,{8}2,{4}3x/A1,{8}4,4,
7,5h[8:1]/6h[16:3],,5/4,2/1,{16}8,7,6,5,4,3,
{12}1,1,1,1s5[8:1],,,{4}1,{16}7,2,{8}7,
{16}6/1,,,7/3,,,{8}4/8,{16}E5,B4,B3,E3,E6,B6,B7,E8,
{2}1b>4[8:1]*-7[8:1],{16}6h[8:1],,,5h[8:1]/6h[8:1],,,{8}6/4,
{16}5,5,5,5,5,5,5,5,{8}E7/A6/E6,{16}4x,3,2,5x,4,3,
1x-3[8:1],7,1,7,{8}1,{16}6,4,,7,{8}5,{16}8,8,8,8,
8,8,8,8,8,8,8,8,{8}E8/A7/E7,{24}A1,E2,E3,B8,C,B4,E7,E6,A5,
{16}7bx,,,3bx,,,{8}1bx,{24}2/8,3/7,{12}4/6,{24},,{8}7/3,7/3,
{16}1/2,1h[8:1]/2h[8:1],,,3h[8:1]/4h[8:1],,,5/3,,,{8}1/6,{16}7,2,8,3,
1,5,1,5,8,4,8,4,7,3,7,3,6,2,6,2,
5,3,4,2,{24}5x,6,7,3x,2,1,B5,B6,E7,B3,B2,E2,{16}8x-4b[8:1],8x,8x,8x,
{1}Cf/8bV24V68V24V68[8:55],
5xh,
6xh,
7xh,
8xh,
1xh,
2xh,
{2}3xh[2:1],{4}Ch[4:1],{16}E4,E3,E2,E1,
8x-3[16:1],,,6x-1[16:1],,,{8}2x-6b[16:1],{16},,,,8-4[16:1],,,2-5[16:1],
,,{8}7-3[16:1],{16},1-5[16:1],,,{2}1/8x-3[16:1]*-5[16:1],
{8},5x/B4,{4}2x/E7,{8}8/1,2x-5[16:1],{16},8x-3[16:1],,,6x-1[16:1],
,,4x-8[16:1],,,{8}2xh[4:1],,,8,{16}2,4,
{8}3,{16}5,4,{8}6,7/3,2,1h[8:1]/4h[8:1],{16},2h[8:1]/7h[8:1],,,{4}5h[8:1]/8h[8:1],
{8}7,6/4,5/3,{16}2,4,,7,{8}5,
{16}6/3,3/6,,,2,4,3,4,{8}3,1bh[8:1],{16}7,5,6,5,
6bh[8:1],,,7bh[8:1]/3bh[8:1],,,{8}8bh[8:1]/4bh[8:1],{16},1bh[8:1]/5bh[8:1],,,2,6,2,6,
{24}1x<2b[2:7]`5x>6[2:7],8x/4x,7x/3x,6x/2x,{1},,,{4},,,{16},{48},{4}2h[4:1],
3<8[8:3],,,4h[4:1],
2>8[8:3],,,5h[4:1],
1>7[8:3],,,1,
{8}2,3,4,5,{16}6,7,8,1,
{4}6/2h[4:1],3h[4:1],1h[4:1],7h[4:1],
5<8[8:1],{16}1,,,2,,,{8}4/3,6/5,7/2,
{4}8/1-5[8:1],1/6-8[8:1],{8}6/4,3,2,3b-6[8:1]/7b-2[8:1],
,7/3,,5>2[8:1]/1<6[8:1],,1b/5b,,,3-8[8:1],
4,3/7,5-1[8:1],,5/1,,8<5[8:1]*>3[8:1],
,8b,,2x/6x,{16},,2,4,{8}3,{16}6,5,
{4}7-3[8:1],7b/4>1[8:1],8/4,{8}7,{16}6,2,
{8}4,{16}3,5,4,6,{8}8x/7x<4[8:1],{24},,,8/7,1,2,{8}3,2x/6x,
7,{16}6,1,{8}6,{16}5,7,{8}4,3/8-4[8:1],7,8/1,
{16}E2,E3,{8}E4,{16}8,7,6,5,2,6,3,5,{4}4x<7[8:1],
2-5[8:1],2/8-4[8:1],{8}1/8,3,2/6,3<5[8:1],
6b,6b,{16}7b-2[16:1],,,7/3b-6[16:1],,,{8}3,{16}1b,8,7,6,
{4}5-1[8:1],{8}1/5,2-4[8:1],,8,7,1-5[8:1]/6-8[8:1],
,1x/6x,,4x>2[8:1],,4x/1x,{16}8,7,6,5,
{8}4/2-6[8:1],2,1-5[8:1],1,8,8,{16}5x/1,6/2,{8}7b-2[8:1]/3b-6[8:1],
,7<4[8:1]/3>8[8:1],,3x/7x,{16},,D1/E1/D5/E5,{32}A7,B7,C,B3,{16}A3,,,7,
8,7,8,{8}6,{16}2,1,2,1,{8}3,{16}5,4,{8}6,
7b/3b,6b/2b,{4}1bh[8:1]/5bh[8:1],8>3[8:1]/4<7[8:1],4b/8b,
4x/8xh[4:1],{8}B5,7h[4:1],,B4,{4}6h[4:1],
{8}B3,5h[4:1],,B2,{2}4h[4:1]/1-5[8:1],
{4}3h[4:1],{8}B8,2h[4:1],,B7,{4}1h[4:1],
{8}B6,8h[4:1],,B5,{16}1,7,1,7,{8}1,2/6,
3xh[4:1],4,4,2h[4:1],5,4,1h[4:1],6,
5,2h[4:1],7,6,{4}3/5,6/4,
{8}7/8,8/6,,2/1,{4}1/3,{8}5/4,5/4,
{16}3,5,4,5,3,6,3,6,2,7,4,5,1,8,3,7,
{8}2/6-1[8:1],2,2,2,3/8-4[8:1],3,3,3,
{16}2,4,3,5,4,6,2,5,3,6,4,7,{4}1b,
{8}8/3,8/3,4/7,4/7,5/3,5/3,6/2,6/2,
{24}8/7,6,5,4,,,{8}2,{24}2/8,3,4,{16}5,,,8x/6x,,,{8}3x/1x,
{16}2,5,4,6,{8}1,{16}7,4,5,3,{8}8,{16}1,8,1,8,
{8}2/7,{16}3x,4,{8}5/2,{16}6x,5,{8}4/7,{16}3,2,1,8,7,6,
{8}5/3,{16}2-5[8:1],1,3,8,{8}2x,{16}7-4[8:1],8,6,1,{4}7x,
{16}3,5,2,6,4,7,3,5,1,6,4,8,{32}3x,2,1,8,7,6,5,4,
(114){4}3-6b[16:1]/7-2b[16:1],7bp4[4:7]`3bp8[4:7],
E
