&title=Growing Pains
&artist=IMLAY
&first=0.03
&des=slap爽slap爽slap
&clock_count=4
&lv_5=13+
&inote_5=(133){4},,,,,,,,1,
1,2,3/4-1[8:1],
4/5,{16}1/5h[16:3],,,1,{8}5,6/4,{4}7/5-8[8:1],
4/5,{16}8/4h[16:3],,,8,{8}4,6/3,{4}2/5>2[8:1],
6/5,{16}2/6h[16:3],,,5,{8}6,7/4,{4}7/4<7[8:1],
3/4,{16}7/3h[16:3],,,4,{8}3,2/5,{4}7-2[8:1]/2-7[8:1],
7/2,{16}2/7h[16:3],,,8,{8}7,6/5,{4}5/4-7[8:1],
2/4,{16}7/2h[16:3],,,8,{8}1,7/2,{4}3<6[8:1]/6>3[8:1],
3/6,{16}6/3h[16:3],,,5,{8}4,8/1,7/2,6/3,
{4}5h[8:5]/4p1[8:3],,,1b/5b,
5/6h[4:3],,,5-2[8:1],
{8}7/5,6,{24}3,4,3,4,{48},,,,{16}5/2>5[8:1],,,5,{8}2,6,
7/5,6/4,{24}3,5,4,5,{48},,,,{16}4/6-3[8:1],,,3,{8}6,2,
1h[8:1],{16}4,2,4,1,,5,6,7h[16:3],{8}5,5<8[8:1],4,
3b,2,{24}3,4,3,4,3,4,{16}2-6[8:1],,,5,{8}2,7h[4:1],
6,6,{24}5,7,5,6,{48},,,,{16}4/7<4[8:1],,,3,{8}7,2h[4:1],
3,3,{24}2,3,1,4,{48},,,,{16}5/1v4[8:1],,,6,{8}1,7,
8h[8:1],{16}5,8,4,7,,2,2,4,3,5,5-1[8:1],4,{8}6,
{4}5/7<4[8:1],{8}2/7,{16}3,3,{4}4p8[8:1],5/4,
8/7-5[8:1],7/8-4[8:1],8/1-3[8:1],4/1<3[16:5],
{8}1/5h[4:1],,,6,6-8[8:1],4,6,5,
8h[8:1],{16}5,7h[8:1],,4,{8}6h[8:1],{16}3,5h[8:1],,2,4,4,3,3,
{4}5b<8[8:1]/2b-6[8:1],5/2,{16}7/3,,,6,{8}5,6/4,
{16}3,4,2,4,{8}3,5/2,{16}6,5,7,5,{8}6,7/4,
3h[8:1],{16}5,4h[8:1],,6,5,7,3,5,4,6,1,8,2,7,
3,3,5,5,4,4,6,6,{12}1h,7h,4h,8h,2h,6h,
{8}3h[4:3]/4bq6[2:1],,,,,,,6/3,
7/5,7/5,{16}4,6,4,6,3,5,3-5[8:1],5,{8}2h[8:1],3,
1,1,{16}6,5,6,5,7,8,7-1[8:1],8,{8}6h[8:1],7,
5,5,4h[8:1],{16}3,3h[8:1],,2,{8}2h[8:1],1>4[8:1],8,
1/7,6,{16}6,5,,8,{8}1,{16}2-4[8:1],4,,5,{8}2,
6,6,5h[8:1],{24}6,,6,{12}4,{24}4,7-5[8:1],,7,{8}5,7,
4,3,{16}3,5,4,5,2,5,4-6[8:1],5,{8}2,3,
3h[8:1],{16}6,6h[8:1],,5,{8}5h[8:1],7,1/8,{4}3/5-1[8:1],
{8}5b/6b,6h[8:1],{16}1,6,2,5,{48},,,,,,{24}4,5,4,{8}5,7/5,
4/2,{16}1,8,2,7,3,6,,4,5,3,6,6,{8}2h[8:1],
4,{16}3,5,4,5,3,4,2,6,4,6,2,5,{24}3,4,5,
{8}6h[8:1],{16}4,5,4,6,5,6,4b,7,{8}4h[8:1],{16}7b,3,{8}8h[8:1],
{12}2h,3h,4h,5h[16:3],{48},,,,,{16}4,,3,4,3,4,2h[16:3],{48},,,,,,{12}6h,
5h,4h,3h/7h,6h,5h,4h/8h,7h,6h,1h,8h,7h,
{8}6/4,5,{16}4,5,3,5,4,6,4,5,{8}3,{24}3,4,3,
{8}5h[8:1],{16}4,4h[8:1],,6,5,4,{24}7,6,5,4,3,2,{32}8,7,6,5,4,3,2,1,
{1}8b>7[4:7],
,8<2[2:3],
{4},,,8h[4:1],
{8}1,{24}2,3/5,4/6,{4}5/7h[8:1],{24}2/4,3/5,4/6,5/7,,,{8}7/5,6h[8:1]/5h[8:1],
{24},,,7,6/4,5/3,{4}4/2h[8:1],{24}7/5,6/4,5/3,4/2,,,{8}4/2,3h[8:1]/4h[8:1],
,5h[8:1],4,3h[8:1],{16}4,3,5,2,{8}6b,{16}3,4,
{8}5h[8:1],{16}4,5,{8}3,{16}2,4,1,8,5,7,1-4[8:1],8,2,6h[16:13],
,,,,,,,,,,,,{4}1w5[8:1],
1b,{24}1,2,3,1,8,7,2,3,4,8,7,6,1,2,3,7,6,5,
{8}3h[8:1],4,5/4,{24}3,,3,{12}5,{24}5,2,,2,{12}4,{24}4,5,,5,
{8}6,6/5,5/7,{16}8,8h[8:1],,1,{8}8,7/2,5/3,
{16}4-2[8:1],4,,6,{4}6h[8:1],{16}1,8,1,8,5,7,5,7,
6/4h[4:1],,,5,{8}5h[4:1],{24}1,2,3,{16}4h[16:3],,,6,{8}5h[8:1],4,
{16}1,5,4,6,1,5,4,6,2,5,4,5,3,6,5,6,
4,4h[8:1],,5,,6/3,,7/2,,2/7,{8}7/2,5/4,1/8,
7/2-5[8:1],{16}3,4,{8}2,{16}6,6,{8}5-8[8:1],7,{4}5/4,
{8}8b/1bq4[8:13],,,7h[4:1],,,{4}7,
{8}6h[4:1],,,6h[4:1],,,{4}6h[8:1],
{12}5h/4h,3h,2h,1h/5h,6h,7h,8h/4h,3h,2h,1h/8h,7h,6h,
{8}2h[8:1]/5h,{16}4,3,{8}5,{16}1,8,4,6,3,5,2,2,4,3,
{4}4/5-1[8:1],{16}6/5,,,8,{8}1,4/2,5/4,7,
{4}6/4-8[8:1],{16}3/4,,,1,{8}8,5/7,4/5,3/6h[8:1],
{24}4,3,2,5,6,7,3,2,1,6,7,8,2,3,4,1,2,3,7,6,5,8,7,6,
{8}1h[8:1],{16}4,3,{8}8h[8:1],{16}5,6,{8}4/1,2/5,4>1[8:1]/8<5[8:1],1/5,
E
