&title=生日祝福歌 (Remix)
&artist=格格
&first=0
&des=Minepig
&clock_count=4
&lv_5=13+
&inote_5=(134){4},{1},{4}1w5[8:1],
{2},C,
C,
{4}C,C,{8}Cfh[4:1],{4},{8}6,
{4}5/3h[4:1],{16}6,{8},{16}5,{4}3h[4:1],{16}6,{8},{16}5,
{4}3-8[8:1],6-1[8:1],{8},,,3,
{4}4/6h[4:1],{16}3,{8},{16}4,{4}6h[4:1],{16}3,{8},{16}4,
{4}6-1[8:1],3-8[8:1],{2},{16}6/1-4[8:1],
{8},{16}5,{8}1-6[8:1],7,1/5,{16}3,3,{8}7>2[4:1],7,
{4}2>5[4:1],5q8[8:3],8,{8}1,{16}2,3,
{8}4/8,{16}8,4,{8}8,7/3,3h[4:1]/7-4[8:1],7,{4}7,
{16}2x,1,2,1,3x,8,3,8,4x,7,4,7,5x,6,5,6,
4b,5,{8}4,{16}6,5,{8}6,{16}Cf/B7/B6/B2/B3,{8},{16}4,5,4,{8}5,
{4}7/4-2[8:1],7/4,3/8-6[8:1],8/3,
2/5-7[8:1],2/5,6/1-3[8:1],1/6,
5/1>4[8:1],1/5,1/5<8[8:1],5/1,
4/8<5[8:1],8/4,8/4>1[8:1],4b/8,
6/2-4[8:1],2/6-8[8:1],6/3-1[8:1],3/7-5[8:1],
7/4-1[8:1],4/8-5[8:1],8/4w8b[8:1],4b,
{16}6/2h[16:3],{8},{16}7h[16:3],{8},3,{16}2/6h[16:3],{8},{16}3h[16:3],{8},{16}E7,E6,
{8}E5/Cfh[8:3],{4},{8}B7/B6/B2/B3,{2},{8}5q2[4:1],
5,2<7[32:5],3,{4}4-1[8:1]*-8b[8:1],4bx,
{8}4p7[4:1],4,7>2[32:5],6,{4}5-8[8:1]*-1b[8:1],5bx,
{8}3-7[8:1],8-2[8:1],3-5[8:1],8qq4[16:5],{4}3,{8}1-4[8:1],1-6[8:1],
1,1,5-7[8:1]*-8b[8:1],5,{4}5b-3[8:1]*-2b[8:1],5b,
{8}7/1-5[8:1],1,1/7-3[8:1],7,{4}7/1,{8}8/1-5[8:1],2,
1/8-4[8:1],7,8/1-5[8:1],2,{4}1/8-6[8:1]*-3b[8:1],8b,
{8}2/7,{16}1,8,{8}1,2/7,3/6,{16}5,4,{8}5-8[8:1],6/3,
{4}2bh[4:3]/5-7[8:1],5-1[8:1],5-8[8:1],5<4[4:3],
C,B3/B4,{8}B7/E7/B6,B1/E2/B2,Cfh[8:1],5,
{4}6/3xq4[4:1],{8}3x/4>1[8:1],6,{24}8xv5[8:1],7,6,5q7[4:1],{12},{4}8x/4,
3>6[4:1],3/6x<3[4:1],{8}4b,{4},{8}4,
{4}3/6xp5[4:1],{8}6x/5<8[8:1],3,{24}1xv4[8:1],2,3,4p2[4:1],{12},{4}1x/5,
5x-8[8:1]*-1[8:1],5x-7[8:1]*-2[8:1],{2}5b-8[8:1],
{4}7/4xqq4b[4:1],{8}8/4pp4b[4:1],8,{4}8x,{8}1-3[8:1]*-4[8:1],1,
{4}1b-5[8:1]*-6[8:1],1b-3[8:1]*-7[8:1],1bw5[8:1]*w5[8:1],1b,
1x/7,{24}2/8-4[8:1],3,4,5,6,7,{4}8x<4[4:1],8/4>2[8:1]*>1[16:3]*>8[4:1]*>7[16:5]*>6[8:3]*>5[16:7],
{8}B6/B5,B3/B4,,Cf,,,,7,
{4}8<5[8:1]/4x>1[8:1],8q4[8:1]/4xq8[8:1],4x>6p5[8:3],8/4x,
8x-4[8:1],8/B8f/4xpp6[16:3]*qq2[16:3],{8}4b,{4},{8}6,
{4}2x/5<1[8:1],5/3xpp4[4:1]*V14[4:1],3x,{8}A4f,5,
{4}5x-2[8:1]*-1[8:1],5x-7[8:1]*-8[8:1],{2}5bw1[8:1],
{4}2/5pp5b[4:1],{8}1/5qq5b[4:1],1,{4}1,{8}8-6[8:1]*-5[8:1],8,
{4}8b-4[8:1]*-3[8:1],8b-6[8:1]*-2[8:1],8bw4[8:1]*w4[8:1],8b<5[4:1],
5-1[4:1],1>4[4:1],4-8[4:1],8<6[8:1]*<5[16:3]*<4[4:1]*>2[8:1]*>3[16:3]*>4[4:1],
{8},,,4>1[8:1],{2}1<6[8:1],
{8}1/8,{16}2,6,{8}1h[8:1],{24}5x,2-6[24:5],3,4,5,6,7,8,1,{4}2bx,
{8}1/8,{16}7,3,{8}8h[8:1],{24}4x,7-3[24:5],6,5,4,3,2,1,8,{4}7bx,
{8}4/5,{16}3,7,{8}4h[8:1],{24}8x,3,2,1,8,7,6,5,4,{8}3bxh[8:1],{24}8x,7,6,
{8}5h[8:3],{4},{24}1x,2,3,{2}4h[4:1],
{16}2/5x>2[16:1],{8},{16}8/5x<8[16:1],{8},1/5xqq8[4:1],{2},{16}7/4x<7[16:1],
{8},{16}1/4x>1[16:1],{8},8/4xpp1[4:1],{2},{16}7,
5,{8}7,{16}2,4,{8}2,{16}8-4[8:1],1,7,2,{8}8b,2,
{4}7/3-6[8:1],3/8-6[8:1],8/4-2[8:1],4v1[8:1]/8-5[8:1],
4/8-6[8:1]*-2[8:1],8xw4[8:1]*w4[8:1],{2}8x,
{4}2/6-3[8:1],6/1-3[8:1],1/5-7[8:1],5-8[8:1]/1v4[8:1],
5/1-3[8:1]*-7[8:1],1bw5[8:1]*w5[8:1],{2}1b,
{4}3/7V51[16:3],7/2-6[8:1],2V84[16:3],2/7,
C/B3/A1/A8/A5/A4/D5/D1/E4/D2/D6/B7/E8f,E8/B7/C/A8/D1/A1/B4/B6/E6/A4/A5/B2/E2f,B7/B6/B1/C/A1/A5/E6f/E4/D4/B3/E8/D8,E8/B7/B6/E4f/E6/A8/B5/B4,
7-3[8:1],7/1-5[8:1],1>5[4:1],1/5<7[8:1]*<8[16:3]*<1[4:1]*<2[16:5]*<3[8:3]*<4[16:7],
{8}B3/B4,B6/B5,,Cf,,,,5,
{4}6/3xq4[4:1],{8}3x/4>1[8:1],6,{24}8xv5[8:1],7,6,5q7[4:1],{12},{4}8x/4,
4qq2[8:1]*pp6[8:1],4-8b[8:1],{8}Cf,6,5,4,
{4}3/6xp5[4:1],{8}6x/5<8[8:1],3,{24}1xv4[8:1],2,3,4p2[4:1],{12},{4}1x/5,
5pp5[4:1],5-1>2[4:1],{8}2b,2,3,3,
{4}4qq4b[4:1]/8>2[8:1],4pp4b[4:1]/8<6[8:1],8,{8}8-2[8:1]*-3[8:1],8,
{4}8b-5[8:1]*-6[8:1],8b,{24}2/8bw4b[8:1],3,4,5,6,7,{4}8b,
5<8[4:1],8>4[4:1],4<1[4:1],1q4[4:1],
4<5<6<7>8>1>2>3<4[4:1],{2},{24}7/1-5[8:1],6,5,4,3,2,
{4}1-7[8:1],{16}1/5-3[8:1],{8},{16}5,{4}5/1-3[8:1],{16}1-7[8:1],{8},{16}1,
{4}1-4[8:1]*-3[8:1],1w5[8:1]*w5[8:1],1,{8}8-4[8:1],2,
{4}8-2[8:1],{16}8/4-6[8:1],{8},{16}4,{4}4/8-6[8:1],{16}8-2[8:1],{8},{16}8,
{4}8-5[8:1]*-6[8:1],8w4[8:1]*w4[8:1],8,C/B7/E7/B6/B2/E3/B3,
{8}5/2-8[8:1],{16}2,6,{8}2-5[8:1],7,2/7-4[8:1],{16}8,8,{8}7/2-5[8:1],1,
{4}2/7-4[8:1],7/3-8[8:1],3/6-1[8:1],{8}6/5-2[8:1],{16}4,4,
{8}5-8[8:1],{16}6,6,{8}5-1[8:1],4,{4}5/7-3[8:1],7/1w5[16:3],
{8}1,{4},{8}B2/E3/B3,{4}B7/E7/B6,Cfh[4:1],
{1}E7/B6/E6/E3/B3/E4,
{1},,,,
E
