&title=blueade
&artist=linear ring
&first=0.04
&des=Aterla_II
&lv_5=13.6
&des_5=Aterla_II
&inote_5=
(100){4},{8},,,,,,,,,,,,,Ch[8:1],
6h[12:1],{24}4h[12:1],,5h[2:1],,,3,,,E2,,,{12}B3,{24},A4,,,C,,,4,
{8}6h[12:1],{24}4h[12:1],,5h[2:1],,,3,,,A1,,,{12}E3,{24},A4,,,B5,Ch[8:1],,,{8}3h[12:1],
{24}5h[12:1],,4h[2:1],,,6,,,E8,,,{12}B6,{24},A5,,,C,,,5,
{8}3h[12:1],{24}5h[12:1],,4h[2:1],,,6,,,A8,,,{12}E7,{24},A5,,,B4,Ch[8:1],,,{12}7-4[8:1],
{24}6,5,,7,,,3,,,E2,,,{12}E1,{24},E8,,,E7,,,4,
{12}7-4[8:1],{24}6,5,,7,,,3,,,A8,,,{12}B1,{24},B3,,,B5,Ch[8:1],,,{12}2-5[8:1],
{24}3,4,,2,,,6,,,E8,,,{12}E1,{24},E2,,,E3,,,5,
{12}2,{24}3,4,,2,A7,B6,E5,E1,B2,A3,A6,B7,E1,E5,B3,A2,{4}Ch[8:1],
1h[3:1]/8V64[6:1],{24}8,,,,,B2,,,{12}B3,{24},B4,{12}6,{24}6,5,,5,
{12}7-4[8:1],{24}6,5,,7,,,3,,,A8,,,{12}B1,{24},B3,,,B5,C,,,{8}8/1v3[6:1],
8,{24}1,,,,,B7,,,{12}B6,{24},B5,{12}3,{24}3,4,,4,
{8}5h[12:1],6h[12:1],7h[12:1],8h[12:1],1>4[8:1],4-8[12:1],{24}D2,D3,D4,A4,C,A8,
{4}7h[4:1],{12}1,1,{24},E8,,,{12}E7,{24},E6,{12}4,{24}4,5,,5,
{12}2-5[8:1],{24}3,4,,2,,,6,E7,,B8,{12}E1,{24}B2,E3,,B4,{12}E5,{24}B6,E7,,,{12}5,
{24}5,4,,4,{12}6,{24}6,3,,3,{12}7,{24}7,2,,2,{12}8,{24}8,1,,1,
7,6,5,4,3,2,8,7,6,3,2,1,8,7,6,5/4,3,2,1/8xh,8xh,8xh,8xh,8xh,8xh,
{4}8bxh[4:1],{12}1-5[8:1],{24}1,5-1[8:1],,5,{2}1-4-2[6:1]*-6-8[6:1],
{4}1bh[4:1],Ch[12:1],{24}7,6,5,E5,B3,E2,{12}8,8h[6:1],,{4}1bh[4:1],
{12}7,5h[8:1],{24},2,{8}3h[8:1],6h[8:1],{24}4<8[6:1],E4,E3,8,B8,C,
{4}B4/4x>1[8:1],4x,{12}8,{24}1,7,6,5,3,2,1,7,6,5,
{4}4bxh[4:1],{12}3,1h[8:1],{24},,{8}8h[12:1],7h[12:1]/1h[12:1],{12}2x/6x,3h[8:1],,{4}5bh[4:1],
8bxh[4:1],{8}1bxh[4:1],E3/B2/B3,{4}4bh[4:1],
{8}5-1[1:1],,,7h[12:1],4h[12:1],{24}6,,6,{8}C,{24}5,,5,
{8}2h[4:1],{24},,,,,,8,,8,{12}7,{24}7,6h[8:1],,,{4}5h[8:1],
4bxh[4:1],{8}C,{24}E3,E2,E1,E7,E6,E5,D1,D2,D3,D5,D6,D7,D8,D2,D3,
{2}5bh[4:1]/4xp6[8:1],{4}8h[8:1]/1q4[6:1],1,
{24}6h[4:1],,,,,4-2-8[6:1],,,5,3,,4xqq2>3[6:1],6h[12:1],,,,,4x,{8}7h[8:1],{24}E8,B7,B6,
,,,5,,5,,,2h[6:1],,,7h[6:1],,,{12}1h[6:1],{24},8h[8:1],,,,{8}1,
8b,{24}7,,5v4[12:1],,,6v7[12:1],,,5-1[12:1],,,{12}6v3[12:1],{24},,,,,,,1,
{8}1b,{24}2,,4v5[12:1],,,3v2[12:1],,,4-8[12:1],,,{12}3v6-4[8:1],{24},,,,,,,,{8}8b,
{24}7,,5v3[12:1],,,6v8[12:1],,,5v2[12:1],,,{12}6v4[12:1],{24},,,,,,,1,
{8}1b,{24}2,,4v6[12:1],,,3v1[12:1],,,4v7[12:1],,,{12}3v6-4[8:1],,,,,7,
6h[24:1],{24},5,,,,,{12}4,{8}E2,5h[12:1],{12}E3,6,,2/B7,
3h[24:1],{24},4,,,,E8,{48}5x,B7,,,{8}B6,{24}4xh[12:1]/B5,,C,,,{6}3x/B1,
{12}8,{24}8,7,,7,,,6,,,5,{12}B4,5,{24},5,{8}6/B2,7,
{12}1x/B8,{24}1,6,,6,{12}2q8[6:1],{24}2,7,,7,,,,,,,1xh,1xh,1xh,1xh,1xh,1xh,
{48}1xh,2x,3x,4x,{12}5xh[6:1]/6x-1[48:5],{24},,,,6x,4h[12:1],{48},,,,8xh,7x,6x,5x,{12}4xh[6:1]/3x-8[48:5],{24},,,,3x,5h[12:1],{48},,,,1xh,
2x,3x,4x,{12}5xh[6:1]/6xv1[48:5],{24},,,,6x,4h[12:1],{48},,,,8xh,7x,6x,5x,{12}4xh[6:1]/3xv8[48:5],{24},,,,3x,5h[12:1],,,{12}1xh[8:1],
{24}8,7h[8:1],,1,{12}2h[8:1],{24}7,6h[8:1],,2,{12}3h[8:1],{24}6,5h[8:1],,3,{12}4h[8:1],{24}5,6h[12:1],,,3,
2,1,8,7,6,4,3,2,7,6,5,4,3,2,1/8,7,6,5/4xh,4xh,4xh,4xh,4xh,4xh,
{8}4bxh[24:5],5h[8:1],{24},,6/3,,,4p8[8:1],,,{12}8qq6[8:1],{24},4,,,{6}7h[8:1],
{8}8bxh[24:5],1h[8:1],{24},,2/7,,,8p4[8:1],,,{12}4pp6[8:1],{24},8,,,3,E3,,,{8}5bxh[24:5],
4h[8:1],{24},,3/6,,,5q1[8:1],,,{12}1pp3[8:1],{24},5,,,{6}2h[8:1],
{8}1bxh,8h[8:1],{24},,7/2,,,1q5[8:1],,,{12}5qq3[8:1],{24},1,,,6,E7,,E1,
{3}4bxh[24:5]/B8f,{24}4,4,,E1,{6}5bh[24:5]/B1f,{24},,,,5,5,,1,
,,{12}4x/E8f,3x/E7f,2x/E6f,1x/E5f,8x/E4f,{8}7xh[8:1]/E3f,4h[8:1],5qq8[4:1]*pp2[4:1],{24}6/4,,5,
{3}5/B5f,{24}1h[6:1],,,8,{8}7h[4:1],E2,{24},,2h[6:1],,,7,
{4}6h[4:1],B5/B4,{48}3h[16:5],,,,,,,B8,,,,,{16}B6,B5,{48},,,,,,{12}4<6[8:1],
2h[24:1],{24},B3,,,,,,,{8}E7/B7,{24}E2/B2,,C,,,{6}B4/E5,
{12}5>3[8:1],7h[24:1],{24},B6,,,,,,,{8}E3/B2,{24}E8/B7,,C,{4}5h[12:1],
{12}3,{24}3,6,,6,{4}4h[2:1],5p3[4:1],Ch[4:1],
E
