&title=ギターと孤独と蒼い惑星
&artist=結束バンド
&first=0.04
&lv_5=1
&des_5=meowhell
&inote_5=
(125)
E
&lv_6=14+.6
&des_6=meowhell
&inote_6=
(193){4},,,,,,,,E3,
E4,E5,E6,
{8}6/4,5/3,4/2,3/1h[8:3],,6,5,4-7[8:1],
,2-5[8:1],,8,,3,{16}3,4,3,4,
{8}3,4/6,5/7,6/8h[8:3],,2-7[8:1],,6-3[8:1],
,1s5[8:1],,7,{16},,6,4,6,4,6,4,
{8}7,6/4,5/3,4/2h[8:3],,7,6,5-8[8:1],
,3-6[8:1],,1,,3,{4}3,
{8}2/4,1,3/5,8,6/4,2,7/5,3,
8/7,4,1/2,5,7/3,1,6/2,4/8,
{1}5h[8:13]/3V14z8-5-7[8:11],
{8},,,,,,,,4/6,
4,4/5,4/5,4,4/6,4/6,4/6,
4/5h[8:1],4,4/7h[8:1],4,4/5h[8:1],4,4/7h[8:1],4,
4/5h[4:1],4,4,4/6,4/6h[4:1],4,4,4/5,
4/5h[4:1],4,4,4/7,4/8v7-5[8:3],4,4,4,
4,4,4/E6,4,4/E7,4,8/4h[8:1],8,
8/3h[8:1],8,8/2h[8:1],8,8/1h[8:1],8,8/2h[8:1],8,
8/3h[8:1],8,8/4h[8:1],8,8/2h[8:1],8,8/3h[8:1],8,
8/1h[4:1],8,8,2-5[8:1]/8-4[8:1],2/8,2x/8x,{16},,6x,5x,
{8}7x-3[8:1],7,1-5[8:1],1,8-6[8:1],8,2-4[8:1],2,
5-8[8:1],5,2-5[8:1],2,6-1[8:1],6,{4}4x-1[8:1],
4x/6,{8}4x-2[8:1],7,{4}7/4x,{8}4x-8[8:1],6,
{4}4x/6,{8}4xqq1[4:3],5,5/4x,,,7,
{4}7h[8:1],6h[8:1],5h[8:1],{8}4/3,4,
5/2,2,6/1,6,7/8,1,2q4[8:3],2,
2,6,6q8[8:3],6,6,3,3p1[8:3],3,
3,5,5,5,5,1x/5xq1q5[8:55],{4}3x/7xq3q7[4:27],
{1}C,
C,
C,
C,
C,
C,
C,
{4}7/5,6/4,5/3,2h[8:1]/4h[8:1],
5xh[8:1]/1xq3q5q7q1[4:15],5xh[8:1],5xh[8:1],5xh[8:1],
7xh[8:1],7xh[8:1],7xh[8:1],7xh[8:1],
6xh[8:1],5xh[8:1],4xh[8:1],3xh[8:1],
4xh[8:1],5xh[8:1],6xh[8:1],7xh[8:1],
8xh[8:1],1xh[8:1],2xh[8:1],4/3xh[8:1],
{8}4xh[8:1],5,{4}5xh[8:1],4/6xh[8:1],3/7xh[8:1],
{8}4x/8x,{16}6,5,6,5,{8}7,{16}3,4,3,4,{8}2,{16}7,5,
{8}6,{16}3,4,2,4,{8}3,{16}6,5,7,5,{8}6pp1[4:3],{16}3,4,
{4}2pp5[2:1],Cf,{8},,,,5/8-6[8:1],
5,{4}8/5,{8}3/8-4[8:1],3,{4}3/8,
8-6[16:1]/2v5[8:1],2/8,8-3[8:1]/7v4[8:1],8/7-5[16:1],
7/2-8[16:1],2/4-7[8:1],4/1x<6[8:1]*>4[8:1],1xw5[8:1],
{8}1x/Cf/B1/B5,,,8/6,7/5,6/4,5/3,4/2,
5/1-3[8:1],5,1-7[8:1],5,5/1-4[8:1],5,1-6[8:1],5,
5/1,5,1/3,4/2,3/5,4/6,5/7,6/4,
2h[8:1],{16}4,3,5,4,{8}7h[8:1],{16}5,6,4,5,{8}2h[8:1],{16}4,3,
{8}7h[8:1],{16}5,6,3,4,2,5,1,6,8,7,8,7,8,7,
{8}5/8-2[8:1],5,{4}8/5,{8}6/8-3[8:1],6,{4}8/6,
7/8-4[8:1],8/7-3[8:1],7-5[16:1]/8-2[16:1],7v4[8:1]/8v3[8:1],
8x/7x/Cf,2v5[8:1]/1v6[8:1],1x/2x/Cf,7xp3[8:1]*q3[8:1],
7x/Cf/B7/B3,1x/5x,{16}6,3,5,4,6,3,5,4,
{8}8x-4[8:1],7,8x/1x-5[8:1],2,1x/8x-6[8:1],7,8x/1x-3[8:1],2,
1x/7x-4[8:1],8,7x/1x-4[8:1],2,1x/7x-5[8:1],8,7x/2x-4[8:1],1,
2x/8x-6[8:1],1x-5[8:1],8x-4[8:1],1x-3[8:1],8x<6[8:1],1xp5[8:1],8xq4[8:1],1x>3[8:1],
8x<5[8:1],1xp4[8:1],8xq5[8:1],1x>4[8:1],8xqq5[4:1],1x,{4}8x,
Cf,{8}5/4,5/4,6/3,6/3,7/2,7/2,
{4}1h[2:1]/8pp8qq8[2:1],,,1x,
{8}4x/7x,3/5,5/3,4x/7xh[8:1],5,7/5,5/4,4x/2xh[8:1],
4,5/3,4x/2x,4/2,3/1,4/2,{16}7x,5x,6x,4x,
{8}5x,4/3,5x/7x,4/3,7x/5x,7/5,6/4,5x/7xh[4:1],
,6x,6x/5x,3/4h[8:1],{16},,5x,4x,5x,4x,5x,4x,
{8}7xpp6[2:1],5,4,3,2qq3[2:1],,,5,
,6,5,5pp5[4:1],{24},,,,,,,,,,,,{12}3,
4,1,7,5,8,{4}2xh[1:1]/6x-4[8:1],6x-8[8:1],
6x,6x,5x,{8}4xv2[1:14]`8xv6[1:14],6x/2x,
{1},,,,,,,,{2}Cf,
E5,
,E1,
,A3,
,A7,
,B4,
,A1,
Ch[1:2],E7,
,E2,
{4},,,,,1x-5[8:1],
1x-7[8:1]*-3[8:1],1xw5b[8:1],
1bx/Cf/B5/B1,3x/8x-4[8:1],{8}2x/8x-6[8:1],2x,{4}2x/8-3[8:1],
1x/8x-4[8:1],2x/8x-5[8:1],3x/8x-6[16:1],8x-4[8:1]/4x-8[8:1],
8x-6[16:1]/4x-2[16:1],4xv1[8:1]/8xv5[8:1],{2}8x<5q1[2:1]/4x>1q5[2:1],
{8},,,,1/3,2/4,3/5,4/6,
5/7,4/8-6[8:1],4,4x/8-2[8:1],4,4/8-5[8:1],4,4x/8-3[8:1],
4,4/8,4,8x/6x,5x/7x,6x/4x,5x/3x,4x/2x,
{16}8bx,4,7,5,{8}6,{16}1bx,5,2,4,{8}3,{16}8bx,5,{8}6,
{16}1bx,4,{8}3,{16}7bx,2,7,2,6bx,3bx,5bx,4bx,7bx,2bx,6bx,3bx,
{4}1bx-7[8:1],1bx/4,{8}3/1bx-6[8:1],3,{4}1bx/3,
2bx/1bx-5[8:1],1bx/2bx-6[8:1],2bx-4[16:1]/1bx-7[16:1],2bxv5b[8:1]/1bxv6b[8:1],
1bx/2bx/Cf/E2/E6,7bv4b[8:1]/8bv3b[8:1],8bx/7bx/E8/Cf/E4,2bxq6b[8:1]*p6b[8:1],
2bx/B2/Cf/B6/A6,8bx/4bx,6bx/2bx,{16}5,4,5,4,
6bx,3,4,3,7bx,4,5,4,8bx,5,6,5,1bx,4,5,4,
8bx,3,4,3,7bx,4,5,4,8bx,3,4,3,1bx,4,5,4,
6bx,5,6,5,6x,5,6,5,7bx,4,7,4,7x,4,7,4,
8bx,3,8,3,8x,3,8,3,1bx,2,1,2,1x,2,1,2,
{4}8bx,{8}8/1,8/1,7/2,7/2,6/3,6/3,
{1}5h[2:1]/4pp4qq4[2:1],
{8}7/5,6/4,5/3,2/4-1[8:1],1-6[8:1],,,2x-5[8:1],
,6xv1[8:1],,4xv7-2[4:1],,4x,,,2x/4x,
3/5,4/6,7/5-8[8:1],8-3[8:1],,,7x-4[8:1],
,3xv8[8:1],,5xv2-7[4:1],,5x,,,6x/5x,
{16}3,4,{8}3,{16}7,8,7,8,{8}6h[8:1],{16}2,1,2,1,
{8}3h[8:1],{16}8,1,8,1,{8}7,6/5,4/3,2/1,8/7,
{16}6,6,6,6,6,6,6,6,5h,5h,5h,5h,5h,5h,5h,5h,
4bx,4bx,4bx,4bx,4bx,4bx,{32}A3f,B3,C,B7,{4}A7,{8}8x/4x,6x/2x,
{1}E7fh[8:13]/E3fh[4:7],
{8},,,,,,,1x-5v7-3b[4:19]/5x-1v7-3b[4:19],
E
