&title=秘密
&artist=はるまきごはん
&first=-0.94
&des="X"
&lv_5=12+
&inote_5=(135)
{8},,,,,,,,
6q3[4:2]/4h[4:11],,,,,,,,
3p6[4:2],,,,,,,,
6q3>7[4:4],,,,,,,,
4,,,,2/6,,,,
6h[4:11]/8q5[4:2],,,,,,,,
5p8[4:2],,,,,,,,
8q5>1[4:4],,,,,,,,
Ch[4:4],,,,,,,,
3x,4,5,6,6,4,5,3,
3h[8:3],4,5,6,6h[8:3],5,4,3,
5/3,6,4,5,3,4,3,5,
6,5,4,3,3,4,5,6,
7h[8:3],8,1,2,3h[8:3],4,5-1[8:1],6,
,,,,,,,,
2h[4:4],,,,6h[4:2],,,,
{16},,E1,B1,B2,,E6,B6,B7,,E3,B3,B4,,8,,
7<4[8:1],,,,7/1,,2,,3-7[8:1],,,,3/5,,,,
1>4[8:1],,,,1/8,,7,,6-2[8:1],,,,3/6,,,,
4/8<5[8:1],,,,8/1,,2,,3-7[8:1],,,,3/4,,,,
1/6,,7x,7x,,7xqq3[4:1],,7x,,,,,,,,,
2-6[8:1],,8-4[8:1],,,,,,1>5[8:1]*<5[8:1],,1,,,,,,
8/4,,7/3,,6q6[8:2]/2q2[8:2],,5/1,,,,,,,,,,
7,8,7,,2,,3/5,,6v4[8:1],,6,,4xV28[4:1]*V68[4:1],,,,
4x,,,,,,,,1,,2,,3,,4,,
5b<2[4:2],,4,,3,,,,2p4[4:2],,,,,,,,
4b<1[4:2],,3,,2,,,,E4,,,,,,,,
6,,2,1,2,1,,3,,5,,7,8,,1/6,,
2,4,3,5,,7/1,,1bx-5[8:1]/2bx-5[8:1],,,,,,,,,
E8/B8/B7/A7,,,E4/B4/B3/A3,,,{128}5<4[4:5],Cf,,,,,,,,,,,,,,,{16},,,,,,,,
,,,,,,,,,,,,,,,,
E2/B1/B2/A2,,,E6/B5/B6/A6,,,{128}4-8[4:1],Cf,,,,,,,,,,,,,,,{16},,,,,,,,
6/1,,7,8,7,,6/1,,2/5,,3/6,,7/4,,8/3,,
1h[8:7],,,,2,,2,,2,,2,,2,,2,,
2x/8x,,2,,2,,2x/6x,,2,,2,,4x/2x,,2,,
3/4,,5,,6/2,,7,,8/1,,1,,8-5[8:1]/2,,3,,
8b/4-1[8:1],,,,4b,,,,(138)Cf/B2/B3/B4/B5/B6/B7,,,,,,,,
(135)8/2,,,6,5,,7/8,,1-6[8:1],,2,,1x-4[8:1]/3,,,,
1x/7,,,,2,,3,,4<7[8:1]*>1[8:1],,,,4,,,,
6h[8:1],,,3,4,,5-2[8:1],,6,,5b-8[8:1]/7,,,,5b/3,,
,,2,,1/7,,,,8w4[8:1],,,,8,,,,
6h[8:2],,,,2h[8:1],,B7,,8h[8:1],,B4,,3h[8:1],,B8,,
1xh[8:3],,2,,3,,4h[8:4],,,,5,,6,,7h[8:8],,
4V62[4:1],,,,4,,,,,,8,,1,,2h[8:3],,
7-4-8[4:1],,,,7,,,,1h[8:3],,,,7h[8:1],,,,
1>4[8:1]/7<4[8:1],,,,1b/7b,,,,3/5-8[8:1],,2,,1/5,,,,
6,,3,4,2,,6,5,7b-3b[8:1],,,,7bx,,,,
1h[8:3]/4,,5,,6,,7,,8h[8:3]/2,,3,,4,,5,,
8<4[4:2],,,1,,,2,,3,,,,,,,,
2-6[16:68],,,,,,,,,,,,,,,,
A5/B5/E5,,,,,,,,,,,,,,,,
A4/B4,,,,,,,,,,,,,,,,
A3,,,,,,,,,,,,2x-6b[24:1],,,,
{4},,,,
,,,,
,,,,
{8},,,,4h[8:1],5h[8:1],6h[8:1],7h[8:1],
8h[8:7],,7,7,7,7,7,7,
7x/1x,7,7,7x/3x,7,7,7x/5x,7,
6/5,4,3/7,2,1/8,8,1>4[8:1]/7,6,
1b/5<8[8:1],,5b,,Cf/B6/B7/B8/B1/B2/B3,,,,
7x-1pp5[4:4],,,,,,,,
,,,,8b-4[8:1]/1b-5[8:1],,8b/1b,,
7/2,,5/4,5/4,6/3,6/3,7/2,7/2,
{16}8b/1b,,,7b/5b,,,3b/4b,,,8b/2b,,,7-3[8:1],,,,
7b,,,,1h[8:1],,B5,,4h[8:1],,B1,,2h[8:1],,B6,,
5xh[8:3],,4,,3,,2h[8:4],,,,1,,8,,7h[8:8],,
2V84[4:1],,,,2,,,,,,,,6,,5V31[4:1],,
,,5,,7,,,,2h[8:3],,,,8h[8:1],,,,
1>4b[8:1]*<6b[8:1],,,,1b,,,,5-1[8:1],,2-5[8:1],,,,2,,
8h[4:1],,,,4,,8/4,,7b-3b[8:1]/3b-8b[8:1],,,,7b/3b,,,,
5/1x>4[8:1],,6,,7,,8,,1/6x<1[8:1],,2,,3,,4,,
7x/5x>2[8:1],,,,5x/8x<5[8:1]*q2[8:3],,,,8x,,,,,,,,
4/3,,,4/2,,,4/1,,5/2-6[8:1]*-6[8:1],,,,,,,,
5h[8:6],,,B4,,,B3,,B2,,,,1,,,,
6/5,,,7,5,,8,,7-3[8:1]/4,,3,,,,,,
{128}E1,E5,,,B1,B5,,,B2,B6,,,E3,E7,,,,,,,,,,,,,,,,,,,1x/5x,,,,,,,,,,,,,,,,,,,,,,,,,,,,,,,,{32}A8/A4,D8/D4,A7/A3,D7/D3,A6/A2,,,,,,,,,,,,
{16}4qq4[4:6]*pp4b[4:6],,,,Cf,,,,,,,,,,,,
,,,,,,,,,,,,,,,,
7-4[8:1],,,8,7,,2,,3/5-1[8:1],,4,,5,,,,
7-4[8:1],,,8,7,,1,,5h[4:1]/3x>7[8:1],,,,3b,,,,
5<2[4:2],,4,,3,,,,2p4[4:2],,,,3,,,,
4<1[4:2],,3,,2,,,,B3,,,,B5/E5,,,,
2-5[8:1],,,1,2,,7,,6/4-8[8:1],,5,,4,,,,
2-5[8:1],,,1,2,,8,,4h[4:1]/6x<2[8:1],,,,6b,,,,
4>7[4:2],,5,,6,,,,7q5[4:2],,,,6,,,,
5>8[4:2],,6,,7,,,,E7,,B6,,B5,,E5,,
{12}4xh[12:5],,,,,3h[12:5],,,,,2h[12:5],,
,,,1h[12:6],,,,,,8h[12:6],,,
{32},,,,,,,,7h[12:9],,,,,,,,,,,,,,,,,,,,,,6x,5x,4bxp3>6[8:18],3x,
