&title=匿名M (feat. 初音ミク & ARuFa)
&artist=ピノキオピー; 初音ミク; ARuFa
&first=0
&des=K.S. the anonimous
&lv_5=13
&inote_5=(140)
{1},,
{32}Cf,B4/B5,{16}4hx[16:55]/5hx[16:56],,,{4},,,
{1},
{1},
{4},,,{16}27,,,27,
{4}3xV15[4:1]/6xV84[4:1],,,{8}37,28,
{8}1x-5[8:1],5x-1[8:1],,,7h[4:1],,{16}8x-5[8:1],1,2,3,
{4}4xv1[8:1],,6h[4:1],2V46[4:1],
{16}6V82[4:1],,,1xV36[16:3],{4}2x-7[8:1],,,
{16}E8/B7,,E2/B2,,B6,B5,B4,B3,{8}C,2-6[8:1],2,,
{8}7-3[8:1],5-1[8:1],7,5,4x,,,,
{16}E2/B2,,E8/B7,,B3,B4,B5,B6,{8}C,7-3[8:1],7,,
{8}2-6[8:1],4-8[8:1],2,4,5xw1[8:1],,,,
{8}B3/B4,B5/B6,{12}E8,E1,E2,{8}5-8[8:1],5,5qq1[4:1],,
{4},,{8}7x<5[8:1]/1x>3[8:1],8x,1x-5[8:1]/7x-3[8:1],,
{8}71,,4-8[8:1]/6-2[8:1],,64,,{16}1v4[8:1]*v6[8:1],7,2,8,
{8}1x,,5-1[8:1]/3-7[8:1],,3p4[4:1]/5q4[4:1],,,,
{8},,E8/B8/B4/E4,B1/E2/B5/E6,E3/E7/C,,{48},,,,1x,,,2xv4[48:11]*<6[48:11],,,3x,,
{8}4x,,,,{128}1x<6[8:1],8x>3[128:15],,,{32},{16},{8}1x/8x,1bp5[8:1]/8bq4[8:1],,
{8}1b/8b,,Cf/B2/B3/B7/B6,,{16}4,5,3<1[8:3],4,2h[16:3],,3,,
{16}1,2,3,4,{4}5,{12}4x/5x,3x/6x,2x/7x,{16}1x/8xp7[8:3],,,8hx[16:1],
{16}1,2,3,4,5,,,,4,,4V61[16:3]/8V25[16:3],36,25,,,,
{2}Cf,{16}E6,B5,B4,E4,,,{64}B8,B7,B6,,,B1,B2,B3,
{16},Ch[16:2]/B4/B5,,,{4},,{16}1x,2x,3x,4xh[16:5],
{16}7x,6x,5hx[8:2],,{4},Ch[4:1],,
{8}8,8v5[8:1],3hx[8:1],,{16}4,3,2,1,5,6,7,8,
{16}2,1,2,1,4>1[8:1],7,4,7,,,Ch[8:1],,2x,3hx[16:2],,4,
{16}4,5,6,7,4,3,2,5,6,7,8,1,5,4,3,2,
{16}7,1,7,1,6V83[4:1],2,6,2,,,Ch[4:1],,,,2x,1x,
{16}8,7,6,5,1,2h[8:1],,4,5,6-2[8:1],7,8h[8:1],,,C,,
{16}1x,2x,3,4,8,7,6h[8:1],,4,3-7[8:1],2,1h[8:1],,,C,,
{16},,8h[8:1],,6,5,4hx[8:3],,{8}3x,2xV86[4:1],8xV62[4:1]*-4[8:1],6b-2[8:1],
{8},,,31,2/8qq4[8:3],17,6-2[8:1]/8b,,
{32},B6,C,B2,{8},,,,8hx[8:1],{16}2,6,3,5h[16:5],
{8}2-6[8:1],6v4[8:1]*v8[8:1],{4}2b,,{16}27,,,27,
{4}1b-3[8:1]/8b-6[8:1],1-5[8:1]/8-4[8:1],18,{8}37,28,
{8}1-5[8:1],37,1,,C,,37,26,
{4}1v4[8:1]/5-8[8:1],15,26,{16}1,1,8,,
{8}1>3[8:1]/7<5[8:1],3-7[8:1]/5-1[8:1],17,,,,2h[8:1],8h[8:1],
{8}6-2[8:1],5,4-8[8:1],3,5-1[8:1],6,3-7[8:1],4-6[8:1],
{8}3-1[8:1],4-8[8:1],3,4,3bw7[8:1],,,,
{4}1x-5[8:1]/8x-6[8:1],1-3[8:1]/8-4[8:1],18,1-4[8:1]/5-8[8:1],
{4}15,2-7[8:1]/3-6[8:1],23,B3/B6,
{4}B2/B7,B1/B8,Ch[4:1],,
{16},,2-4[8:1],1,2,1,,,6,5,6-8[8:1],5,6,5,,,
{16},,1-3[8:1],8,1,8,,,8-2[8:1],,7q5[4:1],,8,,7,,
{16}1x,2x,3x,4x,{8},,1q5[8:1],8-6[8:1],1,8,
{16}2x-7[8:1],3x,4x,5x,{4},Ch[2:1],,
{8},1-5[8:1],7-3[8:1],1,7,{16}1,1,7,7,3,3,
{16}5h[16:5],,3,2,1,8-4[8:1],,4V28[4:1]*V68[4:1],,8,,,{4},
{16},,B5/E6,,,,B4,,B3,,,B2,,,E2,,
{16},,B4/E4,,,E6,B5,,B6,,,,Ch[16:1],,,,
{16}3,4,2,5,1,6,8h[4:1],,1x,2,3,4,5,6,7,8,
{16}2x,3,4,5,6,1x,8,7,4,6,3,5,2,4,1,3,
{16}8hx[2:1],,,,Ch[8:1],,,,5,1,6,2,7,3,8,4,
{16}1hx[4:3],,,,,,Ch[4:1],,,,,,,,2,2,
{16}5,3,4,3,5,2,6,1V36[16:3],7,1,8,1,,,7,7,
{16}4,6,5,6,4,7,3,8V63[16:3],2,8,1,8,,,,,
{8}12,34,56,78,2h[16:1]/1h[16:1],7h[16:1]/8h[16:1],6h[16:1]/5h[16:1],3h[16:1]/4h[16:1],
{8}1-5[8:1]/2,8-4[8:1]/7,1-3[8:1],8-6[8:1],1q4[8:2],8-5[8:1],1b,,
{1},
{64}6x,5x,4x,3xpp6[64:141],{16},,,{4},,,
{1},
{2},{8},Ch[4:1],,,
{64}7x,8xz4[64:31],1xs5[64:30],2x,{16},,,{4},,,
{4}1x,2x,3x,{16}37,,,37,
{4}2b-4[8:1]/8b-6[8:1],2v5[8:1]/8v5[8:1],28,{8}37,28,
{8}1V35[32:7]*V75[32:7],3V51[4:1]/7V51[4:1],1,,,,37,26,
{4}1>4[8:1]/5<8[8:1],1-6[8:1]/5v2[8:1],15,{16}1,1,8,,
{8}1p5[8:1]/7q3[8:1],3q7[8:1]/5p1[8:1],17,,,,2h[8:1],8h[8:1],
{8}6-1[8:1],5,4-7[8:1],3,2-5[8:1],1,8-4[8:1],7-5[8:1],
{8}8-2[8:1],7-3[8:1],8,7,8bw4[8:1],,,,
{4}7-5[8:1]/1-3[8:1],7v4[8:1]/1v4[8:1],71,1V35[8:1]/5V71[8:1],
{4}15,2-7[8:1]/3-6[8:1],23,{16}1-3[8:1]*v4[8:1],,,8,
{4}1b,7-5[8:1]*v4[8:1],7,{8}62,37,
{8}8V64[32:7]/4V28[32:7],6V48[4:1]/2V84[4:1],48,,,,26,15,
{4}8>3[8:1]/4<7[8:1],8-5[8:1]/4v1[8:1],84,{16}8,8,1,,
{8}8q4[8:1]/2q6[8:1],6q2[8:1]/4q8[8:1],82,,,,4w8[8:1],35,
{8},,5-2[8:1],6,7-4[8:1],8,1-5[8:1],2-4[8:1],
{8}1-7[8:1],2-6[8:1],1,2,1bw5[8:1],,,,
{4}2-5[8:1]/8<6[8:1],2>4[8:1]/8-5[8:1],28,7-4[8:1]/3-8[8:1],
{4}7/3p2[8:3],1-6[8:1],1,{16}27,,,27,
{4}3xV15[4:1]/6xV84[4:1],,,{4}3h[2:1],
{4}7h[4:1],,{8}4,6,3,7,
{4}2h[4:1]/8h[4:1],,3h[4:1]/5,{8}7,28,
{8}1x-5[8:1],5x-1[8:1],,,7h[4:1],,{16}3,,,37,
{4}4xV25[4:1]/6xV85[4:1],,,{4}6h[2:1],
{4}2h[4:1],,{8}5,3,6,2,
{16}7h[4:1]/E2,B2,,B3,{4}E4,{16}2-6[8:1]/8-4[8:1],37,46,,{4}C,
{16}3-1[8:1],8,1v7[8:1],,{4}7-5[8:1],,C,
