&title=スーパーイザナギオブジェクト
&artist=er
&first=0.000
&des=☆ ~('▽^人)
&wholebpm=167.000
&lv_5=14
&des_5=LUNATIC
&inote_5=(167){1},
{16}
35,,,4,2,,2h[8:2],,,,1,,1,,3,,
64,,,5,7,,7h[8:2],,,,8,,8,,6,,
35,,,4,2,,2h[8:2],,,,1,,1,,3,,
6h[8:1],,1h[8:1],,4h[8:1],,7h[8:1],,2h[8:1],,5h[8:1],,8b-5[8:1]*-3[8:1],,,,
8,,,,2,,2,,1^4[8:1]/8,,,,6,,6,,
7-3[8:1]/5,,,,2,,
2,,1v8[8:1]/4,,,,7h,,,,
5^8[8:1],,,,2,,2,,3-6[8:1]/1,,,,7,,7,,
8-4[8:1]/5,,,,2,,2,,15,,2h,2h,8h,,8h,,
7/5^2[8:1],,,,6,,6,,7qq5[8:1]/1,,,,3,,3,,
2q6[8:1]/6,,,,8,,8,,7v8[8:1]/5,,,,2h,,,,
6/4-1[8:1],,,,8,,8,,7-4[8:1]/2,,,,3,,3,,
2/5,,1h,,7h,,5h,,3h,,1h,,8b/4bqq5[8:6],,,,
{8}6h[8:4],,,,,,7qq8[8:6],,
3h[8:4],
,,,,,2>8[8:6],,
6h[8:4],,,,,,5p4[8:6],,
3h[8:4],,,,,,2,,
1h[8:6],,5,,6,,7,,8h[8:6]/3,,4,,5,,6,,
7h[8:2]/1,,3,,5/6h[8:2],,7,,5h[8:2]/1,,3h[8:2],,2<5[8:2],,,,
4b,,3,4,2-5[8:1],,8,8,7V58[8:2],,1,,3V52[8:2],,6,,
8,8,7h[8:2]/5h[8:2],,,3,2pp4[8:1]/4<2[8:2],,24,,,,3,4,5,6,
{16}7h[8:2]/5,,,,1,,3,4,2h[8:2],,,,8,,6,5,
7h[8:2],,,,1,,3,4,1h[8:2],,,,8,,6,5,
8h[8:2],,,,1,,2,4,3,5,4,6,5,7,5,7,
4h[8:1]/6h[8:1],,,1h[8:1]/3h[8:1],,,82,,7v6[8:1]/1,,,,3h,,,,
8b-3[8:1]/1b,,,,4,,4,,1-6[8:1]/4,,,,5,,5,,
4,5,3,4,2h[8:2],,1,,7h[8:2],,8,,3h[8:2],,1,,
4^7[8:1],,,,4-1[8:1]/2,,,,8/4,,8,,{24}7,6,5,4,,,
{16}8pp7[8:2],,,,5,,5,,6-2[8:1],,,,2,,,
,
1/4^1[8:1],,,,7,,7,,5/4v7[8:1],,,,6,,6,,
5,8,6,8,7h[8:2],,5,,3-8[8:1],,,,34,,4,,
5/2,,{24}3,4,5,{16}6,,1,,2,2,4,,53,,8,,
7-4[8:1]/5-1[8:1],,,,,,,,24,,3,,75,,6,,
1b-6[8:1]/7b,,,,5,,5,,8-3[8:1]/5,,,,4,,4,,
5,4,6,5,7h[8:2],,8,,2h[8:2],,1,,6h[8:2],,8,,
5^2[8:1],,,,5-8[8:1]/7,,,,1/5,,1,,{24}2,3,4,5,,,
{16}1qq2[8:2],,,,4,,4,,3-7[8:1],,,,7,,,
,
8/5^8[8:1],,,,2,,2,,4/5v2[8:1],,,,3,,3,,
4,1,3,1,2h[8:2],,4,,6-1[8:1],,,,65,,5,,
4/7,,{24}6,5,4,{16}3,,8,,
7,7,5,,46,,35,,
4b/2b,,1,17,,6,65,,8q4[8:1]/2p6[8:1],,,,8b/2b,,,,
{8}7b/3b,,4,6h[8:2],5,5,4h[8:2],5,5,6h[8:2],5,5,4h[8:2],5,5,6h,
4,4,3h[8:2],4,4,5h[8:2],4,4,3h[8:2],4,4,5h[8:2],4,3h,1h,,
6h[8:2],5,4,3h[8:2],4,5,6h[8:2],5,4,3h[8:2],4,5,6h[8:2],5,3h,2h[8:2],
4,5,7h[8:2],5,4,2h[8:2],4,5,6,{16}6,5,,3,4,,2,,3h,3h,3h,,2h,,
{1}7<1[8:12]/1>7[8:12],,
{8}8,,,7,,,6h[8:8],,,,,,,,,,
,4,5,3,4h[8:2],,,,1,,2,,3h[16:4],,4,,
5p4[8:6],,,,,,,,,3,2,1,8,7,6,4,
3b/5b,,3,4,2-5[8:1],,6,6,7-3[8:1],,4-1[8:1],,8-5[8:1],,2-6[8:1],,
7,7,8/5^2[8:1],,7,7,8/5^8[8:1]*pp2[8:3],,5,,,,4,5,64,7,
{16}8/1h[8:2],,,,4,,6,5,7h[8:2],,,,1,,3,4,
2h[8:2],,,,8,,6,5,7h[8:2]/4,,,,1,,3,4,
2h[8:2]/5,,,,1,,8,4,7,5,6,5,7,4,5,2,
8b,,7,7h[8:1],,5,5,,1b,,2,2h[8:1],,4,4,,
8b,,7,75,,34,34,,6b/1bs5[8:1],,,,5h,,,,
8b^5[8:1]/3b^8[8:1],,,,3/8-4[8:1],,,,5-2[8:1],,7,,6-1[8:1],,8,,
46,,,2,2,4,3,4,1-5[8:1],,8,,71,,8,,
1pp8[8:2],,{24}4,3,2,{16}16,,,,5,,5,,67,,8,,
16,,{24}16,27,38,{16}4-1[8:1]/1-4[8:1],,,,14,,,,2-6[8:1]/6-1[8:1],,,,
6^3[8:1]/2,,,,8,,7,7,1-6[8:1],,2-5[8:1],,1,,2,,
8,,{24}7,6,5,14,,,5,6,7,84,,,7,6,
5,41,,,5,6,7,{16}
8p4[8:1]/4p8[8:1],,,,8^3[8:1]/4^7[8:1],,,,84,,,,8pp7[8:2]/4,73,62,15,
8b/4bpp3[8:2],,,,,,,,1h,,1h,,2h/8h,,,,
1b^4[8:1]/6b^1[8:1],,,,6/1-5[8:1],,,,4-7[8:1],,2,,3-8[8:1],,1,,
53,,,7,7,5,6,5,8-4[8:1],,1,,28,,1,,
8qq1[8:2],,{24}5,6,7,{16}83,,,,4,,4,,32,,1,,
83,,{24}83,72,61,{16}5-8[8:1]/8-5[8:1],,,,85,,,,7-3[8:1]/3-8[8:1],,,,
3^6[8:1]/7,,,,1,,2,2,8-3[8:1],,7-4[8:1],,8,,7,,
1,,{24}2,3,4,85,,,4,3,2,15,,,2,3,
4,58,,,4,3,2,{16}
1q5[8:1]/5^8[8:1],,,,1/5q3[8:1],,,,1,,1,,{32}8,7,6,5,4,3,2,1,
{16}8b,,75,7b/5b,,34,3b/4b,,8q4[8:1]/2p6[8:1],,,,8b/2b,,,,
7b/3b,,,,,,54,,3,4,3,4,2,,3,3,
5h[8:2],,,,,,34,,2,4,2,4,3,,2,2,
6h[8:2],,,,,,54,,3,4,3,4,2,,3,3,
5h[8:2],,,,,,34,,2,4,2,4,1,5,2,4,
3h[8:2],,,,,,45,,6,5,6,5,7,,6,6,
4h[8:2],,,,,,65,,7,5,7,5,6,,7,7,
3h[8:2],,,,,,45,,6,5,6,5,7,,6,6,
4,,3,
3,,8,8,,2-7[8:1],5,4,7,6h/2b,,,,
,,,,,,,,,,,,,,,,
,,,,,,,,,,,,,,,,
,,,,,,,,,,,,,,,,
,,,,,,,,,,,,,,,,
,,,,,,,,,,,,,,,,
,,,,,,,,,,,,,,,,
,,,,,,,,,,,,,,,,
,,,,,,,,,,,,,,,,
,,,,,,,,,,,,,,,,
