&title=Growing Up
&artist=Machiko
&first=0
&des=reflectW
&des_5=reflectW
&des_6=夜北
&lv_5=12+
&lv_6=13+
&inote_5=(190){1},{8},,,,{16}3,4,5v8[8:8]*v2[8:8],,,,,,,,,,,,,,,,
,,,,,,,,,,,,,,4-1[8:4]*-7[8:4],,,,,,,,,,,,,,,,,,3h[8:3],,,,,,
{16}4>6[4:1],,,,,,,,
{8}5b,,,5,,46,,3,5,4,,57,,6h[4:1],,8>7[8:6],
,5h[8:6],,,,
,,,,7bV51[2:1]/1bV37[2:1],7b/1b,,,,,,,,,36,,4,5,3,6-1[8:1],,,3-8[8:1],,7,6,5,4-8[8:1]/3-1[8:1],,,,5-1[8:1]/6-8[8:1],,,,2h[8:2],,5,5h[8:2],4,3h[8:2],4,5,4-8[8:1],,,,,
{8}5,4,6,3-8[8:1],,,6-1[8:1],,2,3,4,5q1[8:1]/6^8[8:1],,,,4p8[8:1]/3^1[8:1],,,,,47,47,,25,52,,18,18,,45,3,54,6,34,2,56,
{8}7h[4:1],,3h[4:1],,5,,8-5[8:1]/1-4[8:1],,,,,36,,5q1[8:1],5,4h[4:1],,,4,,8v5[8:1],3,8,,46,
{16}4h[4:1],,,,7h[8:2],,,,2-7[16:2],,,,2b,,,,
{8}6,6h[8:2],,4h[4:1],,5h[4:1],,1,1-4[8:1],,1-6[8:1],,1,,
2h[8:2],,3^6[4:1],,6^1[4:1],,1qq5[2:1],,,4,4,4,4w8[8:1],,,,,
{8}6<1[8:1]/5h[8:2],,6,,5h[8:2]/4>1[8:1],,4,,5-8[8:1]*-2[8:1],,,,1w5[8:1],,,,
{8}1h[8:2]/2>5[8:1],,2,,8<5[8:1]/1h[8:2],,8,,1-6[8:1]*-4[8:1],,,,5w1[8:1],,,,
7-1[8:1]/4h[8:4],,,,2-6[8:1],,,,7h[8:4]/3-5[8:1],,,,6-2[8:1],,,,6,6,4,4,5,5,3,3,
6pp5[8:4]/4qq5[8:4],,,,,,,,
{8}2-6[8:1],2,8-4[8:1],8,,,1-5[8:1],1,7-3[8:1],7,,,,,7p3[8:1],7,1q5[8:1],1,,,8p4[8:1],8,2q6[8:1],2,,,,,3-8[8:1],2,4-7[8:1],5,,,2-5[8:1],3,1-6[8:1],8,,
{16},,3,2,1,8,7,6,5,4,
{8}7z3[16:8]/3s7[16:8],,,,,,,,4h[16:6]/6h[16:6],,,,1b,1b,,,7h[16:4]/8h[16:4],,,2h[16:4]/1h[16:4],,,4b/5b,4b/5b,,8,8pp3[8:3],
,8/7,7,6,6,
{8}5<3[8:2]/4,,2,4>6[8:2],,7,5bqq5[8:2]*pp5[8:2],,,,,2,6,3,7h[8:2],,1>7[8:2],,6,8<2[8:2],,1h[8:1],,1b-5[8:1],,,,7,
{16}7h[16:3],,,4h[16:3],,,6,,6v8[8:1]/2v4[8:1],,
{16},,62,,,,1^6[8:1]/5^2[8:1],,,,15,,,,
{8}1-4[8:1]/5-8[8:1],,15,,1-6[8:1]/5-2[8:1],,51,,7h[8:2]/3-1[8:1],,3,,2h[16:4]/6-8[8:1],,6,,1bw5[8:1],28,1b,,1bw5[8:1],28,1b,,
4>6[8:2]/5,,7,5<3[8:2],,2,4bpp4[8:2]*qq4[8:2],,,,,7,3,6,2h[8:2],,8<2[8:2],,3,1>7[8:2],,8h[8:1],,8b-4[8:1],,3,3h[2:1],,
{16}5b,,,,6,,,,7-3[8:1]/4^1[8:1],,
{16},,74,,,,8-3[8:1]/4-7[8:1],,,,84,,,,
{8}4^1[8:1]/8^5[8:1],,48,,8v3[8:1]/4-7[8:1],,8/4>4[8:6],,7h[8:6],,,,,,,7,6-3[8:1],,63,,2-7[8:1],,7<7[8:5]/2,,4h[8:6],,
{16},,,,,,,,,,
{16},,{8}8bw4[8:1],71,8b,,8bw4[8:1],71,8b,,
{8}1b>1[8:12]*<1[8:12],
{16},,,,,,,,{24},,,
{8},
{16},,,,,,,,,,,,
{8},,,5V71[8:2],,1V35[8:2],,5V71[8:2],,1V35[8:2],,,,1-4[8:1]*-6[8:1],,1,,7b/3b,,2-6[8:1],2,8-4[8:1],8,,,1-5[8:1],1,7-3[8:1],7,,,2,,2,,6-1[8:1],7,5-2[8:1],4,,,7-4[8:1],6,8-3[8:1],1,,5,6,7,8,1-5[8:1],,
,,
&inote_6=(190){1},{8},,,,{16}7,6,5v8[8:4]*v2[8:4],,,,,,,,,,,,,,,,
7v4[8:3]/1v4[8:3],,,,,,,,,,,,,,5-8[8:2],,,,,,2,,2qq6[8:4],,,,,,,,,,7h[8:3],,,,,,
{16}8,1,2,3,4,5,6,7,
{8}8b/5b-8[8:1],,5,3,4-1[8:1],,4,7,6-8[8:1],,6,2,3-1[8:1],,3,7,
5h[8:2],,3h[8:2],,8h[8:2],
5,4,3,2,5b/1b,5bz1[8:3]/1bs5[8:3],,,,,,,,,72,,64,8,53,1-5[8:1],,1,6h[8:2],,4h[8:1],5h[8:1],3h[8:1],2p6[8:1],,3,,7q3[8:1],,6,,4h[8:2],,2,2h[8:2],,8h[8:2],5,1h[8:1],4qq3[8:2]*pp5[8:2],,,,,
{8}35,1,46,8-4[8:1],,8,3h[8:2],,5h[8:1],4h[8:1],6h[8:1],8<5[8:1],,3,2,1>4[8:1],,6,7,8,21,83,,34,52,,65,74,,78,61,52,12,83,74,81,
{8}7-5[8:1]/2,,5,,2-4[8:1],,4,,8-4[8:1],,4,,1-5[8:2],,5<8[8:2],6>2[8:1],,,,,2,2,8,8,17,
{16}1/7-2[8:1],,,,7/3-6[8:1],,,,8w4[8:1]/3,,,,8b,,,,
{8}6,6q2[8:2],,2q6[8:2],,6,,8,8-2[8:1]*-3[8:1],,8-5[8:1]*-6[8:1],,8,,
2>5[8:2],,5<8[8:2],,8>3[8:2],,4,5,6,57,8,42,1-4[8:1]*-6[8:1],,,,,
{8}5h[8:1]/3,2,5h[8:1]/3h[8:1],,6/4h[8:1],7,5h[8:1]/3,2,6-1[8:1]/4-1[8:1],,,,8v5[8:1]/2v5[8:1],,,,
4h[8:1]/6,7,4h[8:1]/6h[8:1],,3/5h[8:1],2,4h[8:1]/6,7,3-8[8:1]/5-8[8:1],,,,1v4[8:1]/7v4[8:1],71,71,,
7<5[8:1]/4,,3,,2>4[8:1]/5,,6,,8<5[8:1]/5,,4,,1>4[8:1]/4,,5,,6,7,4,3,7,8,3,2,
1-5[8:1],,7b/1b,8-4[8:1],,8b/2b,,,
{8}6-1[8:1],7,5-2[8:1],4,,,7-4[8:1],6,8-3[8:1],1,,,,,3-8[8:1],2,4-7[8:1],5,,,2-5[8:1],3,1-6[8:1],8,,,,,6-1[8:1],7,5-2[8:1],4,,,7-4[8:1],6,8-3[8:1],1,,,
{16}7,6,5,4,3,2,1,8,
{8}3V15[16:8]/7V15[16:8],,,,,,,,5v7[16:2]/3v1[16:2],,,,6b/2b,6b/2b,,,78,61,52,21,83,74,81,7-3[16:2]*-3[16:2]/2,,,1b,
,82,
{16}82,,
{24}73,4,5,6,7,8,
{16}5/1b-5[8:1],,3,7,1<6[8:1],,8,,1>4[8:1],,2,,1bqq8[8:2],,,,8q4[8:1],,,,5-2[8:1],,,,
6/5-8[8:1],,,,45,,,,2b,,3,4,3qq1[8:1],,2,,7<4[8:2],,8,,7/4>7[8:2],,3h[8:2],,,,,,,,2,,8h[16:3],,,6h[16:3],,,4h[8:3],,3-1[8:1],,,,3,,,,4h[8:2]/5-7[8:1],,,,5,,,,4h[8:2]/3-8[8:1],,,,3,,,,4h[8:2]/5-8[8:1],,,,5,,4,,
3-8[8:1],,,,3b/4,,,,6-1[8:1],,,,5/6b,,,,
{8}1-5[8:1]/2-6[8:1],83,2b/1b,,7-3[8:1]/8-4[8:1],61,7b/8b,,
{16}5b-1[8:1],,7,3,5>2[8:1],,4,,5<8[8:1],,6,,5bqq4[8:2],,,,4q8[8:1],,,,1-6[8:1],,,,
2/1-4[8:1],,,,81,,,,6b,,7,8,7qq6[8:1],,6,,3>8[8:2],,4,,3/8<3[16:5],,7h[8:2],,,,,,,,6,,6,5,4,3,2,1,8,7,6<8[8:1]/5-1[8:1],,,,5,,,,5-1[8:1]/4>2[8:1],,,,5,,,,6-1[8:1]/5-1[8:1],,,,5,,,,4-1[8:1]/5-1[8:1],,,,5<5[16:5],,,,3h[8:4],,,,,,,,8-5[8:1]*-3[8:1],,,,,,,,
{8}3-8[8:1],,53,,6-1[8:1]/2,,64,,
{16}2b,4,3,5,4,6,5,7,1b,4,2,5,3,6,4,7,5bw1[8:1],,
{8}6b/4b,5b,,4bw8[8:1],6b/2b,4b,,
{8}7b/1b,
{16}6,5,6,,7b,,7h[8:2],,{24}8b,1,2,
{8}3qq8[8:3],
{16},,,,,,6h[8:3],,,,1-6[8:1],,
{8}1-4[8:1],,,5<8[8:2],,8>3[8:2],,3<6[8:2],,6<1[8:2],,,,5-8[8:1]*-2[8:1],,5,,73,,51,6v5[16:2]/2v1[8:1],51,62,,,73,62,73,6v7[8:1]/2v3[8:1],,,,1,1,,84,7v8[8:1]/3v4[8:1],84,73,,,62,7v6[8:1]/3v2[8:1],62,73,,81,74,52,84,1-6[8:1]*-6[8:1]/6,,
,
