&title=BPM
&artist=Trina Lydia
&first=0
&des=LiYiN
&lv_5=14+
&inote_5=(100)
{8},,,1h[16:1],1h[16:1],1h[16:1],1>1[1:1],1h[8:1],
{4},,(101),{8}1>1[1:1],1h[8:1],
(102)
{4},,(103),{8}1>1[1:1],1h[8:1],
(104)
{4},,(105),{8}1>1[1:1],1h[8:1],
(106)
{4},,(107),,
(108)
{16}4h[8:1],,,4h[16:3],,,,,(109)6b,,,,5,4,5,4,
(110)
{16}5h[8:1],,,5h[16:3],,,,,(111)3b,,,,4,5,4,5,
(112)
{16}4h[8:1],,,4h[16:3],,,,,(113)6b,,,,5,4,5,4,
(114)
{16}5h[8:1],,,,5h[8:1],,,,(108)3b,,5,4,5,3,6,3,
(116)
{4}8,8<5[8:1],(117)8,1,
(118)
{4}1,1>4[8:1],(119)1,8,
(120)
{4}8,8<5[8:1],(121)8,1,
(122)
{4}1,1>4[8:1],(123)1,{8}1b,5,
(124)
{4}5,5p8[8:1],(125)5,4,
(126)
{4}4,4q1[8:1],(127)4,5,
(128)
{4}5,5p8[8:1],(129)5,4,
(130)
{4}4,4q1[8:1],(131){16}4,,,5h[8:1],,,4,,
(132)
{16}4h[2:1]/5,5,5,5,7,7,7,7,(133)7h[4:1],,4,,,,7,,
(134)
{16}45,4,5,4,5,2,5,2,(135)2,,5,,2,,2,,
(136)
{16}3h[2:1]/4,4,4,4,5,5,5,5,(137)5h[4:1],,3,,,,5,,
(138)
{16}56,5,6,5,6,4,6,4,(139)4h[4:1],,6h[4:1],,,,,,
(140)
{16}3,5,3,5,3v5[8:1],7,3,7,(141){8}3,7,7,3,
(142)
{16}6,4,6,4,6v4[8:1],2,6,2,(143){8}6,2,2,6,
(144)
{16}4,5,4,5,4v5[8:1],6,4,6,(145){8}4,6,6,4,
(146)
{16}5,4,5,4,5v4[8:1],3,5,3,(147){8}5,3,3,5,
(148)
{16}12,2,1-5[8:1],2,1,3,1,3,(149)3xp6[8:1],,3h[8:1],,,,,,
(150)
{16}87,7,8-4[8:1],7,8,6,8,6,(151)6xq3[8:1],,6h[8:1],,,,,,
(152)
{16}24,4,2v5[8:1],4,2,3,2,3,(153)3xp6[8:1],,3h[8:1],,,,,,
(154)
{16}75,5,7v4[8:1],5,7,6,7,6,(155)6xq3[8:1],,6h[8:1],,,,,,
(156)
{16}2h[16:3]/5h[4:1],,,,,,3,,(157)3v1[8:1],4,,,3h[8:1],,,,
(158)
{16}7h[16:3]/4h[4:1],,,,,,6,,(159)6v8[8:1],5,,,6h[8:1],,,,
(160)
{16}3h[16:3]/6h[4:1],,,,,,4,,(161)4v7[8:1],5,,,4h[8:1],,,,
(162)
{16}6h[16:3]/3h[4:1],,,,,,5,,(163)5v2[8:1],4,,,5h[8:1],,,,
(164)
{16}8,7,6,5,4,3,2,1,(165)8h[4:1],7,6,5,4,3,2,1,
(166)
{16}8h[4:1],7,6,5,4,3,2,1,(167)8h[8:1],7,6,5,4xh[8:1],3x,2x,1x,
(168)
{16}4b/8x,,4,8,4>1[8:1],1,4,1,(169)4,,7,6,5,4,3,2,
(170)
{16}1-5[8:1],,3-7[8:1],,1,,3,,(171)4,,4,,4,8,4,8,
(172)
{16}4-1[8:1]*-7[8:1],,,,4b,,,,(173)2/6h[16:3],,,,2,,6h[16:3],,
(174)
{16}2,,2h[8:1],,,,2,,(175)65,,7,,81,,2,,
(176)
{16}3h[16:3]/4,,,,7-3[8:1],,7,,(177)37,,5,,,,,,
(178)
{16}1h[16:3]/8h[16:3],,,,,,18,,(179)1/8h[16:1],,1h[16:1],,7h[16:1],,2h[16:1],,
(180)36,,5,,36,,4,,(181)36,4,5,6,7,6,5,4,
(182)
{16}3,1,4,2,5,3,6,4,(183)7h[4:1],,,,8,1,2,3,
(184)
{16}4,5,6,5,4,3,2,1,(185)8h[4:1],,,,1,2,3,4,
(186)
{16}56,,,54,,,34,,(187)12,,,,1>4[8:1],,1,,
(188)
{16}18,,,,6,7,8,1,(189)2,1,8,7,6,5,4,3,
(190)
{16}6,7,8,1,7,8,1,2,(191)8,1,2,3,1,2,3,4,
(192)
{16}56,,56,,56,,56,,(193)45,,43,,45,,56,,
(194)
{16}7,8,7,8,6,1,5,2,(195){32}4b,3,,,,,4b,3,,,,,5b,6,,,
(196)
{8}4/5q2[4:5],,5,4,(197),4h[4:1],,,
(198)
{8}4,4h[4:1],,,(199)4h[4:1],,,,
(200)
{8}4p7[4:5]/5,,4,5,(201),5h[4:1],,,
(202)
{8},5,5h[4:1],,(203),,4,,
(204)
{8}4/5q1[4:5],,5,4,(205),4h[4:1],,,
(206)
{8},4h[4:1],,,(207),4h[4:1],,,
(208)
{8}4p8[4:5]/5,,4,5,(209),5h[4:1],,,
(210)
{8},5h[4:1],,,(211)5h[4:1],,,,
(212)
{4}1-5[2:1]/7,7,(213)7,7,
(214)
{4}7/5-2[2:1],7,(215)7,7,
(216)
{4}7/2-6[2:1],7,(217)7,7,
(218)
{4}67,8,(219){16}1,,1,,1,8,1,,
(220)
{4}18,2/8-5[4:1],(221)28,2,
(222)
{4}2,2/5-1[4:1],(223)25,2,
(224)
{4}2,1-4[4:1]/2,(225)12,2,
(226)
{8}2,,2/4-8[4:1],2,(227)24,2,2,2,
(228)
{8}2b/8b,,3,3h[4:1]/7h[4:1],(229),,4b/5b,,
(230)
{8}1b/8b,,6,2h[4:1]/6h[4:1],(231),,4b/5b,,
(232)
{8}1b/2b,,3,3h[4:1]/8h[4:1],(233),,4b/5b,,
(234)
{16}7b/8b,,,1b/8b,,,1b/2b,,(235)1b-6[8:1]/2b-5[8:1],,,,1b/2b,,,,
(236)
{16}3h[8:1],,,4,3h[8:1],,,5,(237)3h[8:1],,,6,3h[8:1],,,,
(238)
{16}7h[8:1],,,2,7h[8:1],,,1,(239)7h[8:1],,,8,7h[8:1],,,,
(240)
{16}17,,8,,13,,2,,(241)35,,4,,57,,6,,
(242)
{16}1h[8:1],,,8,1h[8:1],,,7,(243)1h[8:1],,,6,1h[8:1],,,,
(244)
{8}15,6,15,2,(245)37,6,73,2,
(246)
{8}1,8,15,7,(247)26,4,26,,
(248)
{8}37,4,26,5,(249)24,3,3,3,
(250)
{8}13,1,1,,(251)18,7,18,2,
(252)
{8}45,3,45,6,(253)47,6,25,3,
(254)
{8}18,2,18,7,(255)16,7,38,2,
(256)
{8}4/5h[4:1],3,2,1,(257)1h[4:1]/8,7,6,5,
(258)
{8}42,8,57,1,(259)24,3,46,5,
(260)
{8}17,17,17,17,(261)28,28,28,28,
(262)
{8}35,1,46,8,(263)17,6,28,3,
(264)
{8}56,7h,56,7h,(265)56,8h,56,8h,
(266)
{8}12,3,45,3,(267){24}7x,8x,1x,2x,3x,,8x,1x,2x,3x,4x/5x,,,
(268)
{8}5x/6x,6x,5x/6x,6x,(269)3x/4x,3x,3x/4xh[16:1],3x,
(270)
{8}3x/4x,5,24,3h[8:1],(271)4,3h[8:1],5,3h[8:1],
(272)
{16}6,7,8,1,4,3,2,1,(273)8,7,6,5,4,3,2,1,
(274)
{16}8,7,6,5,4,3,2,1,(275)4,3,2,1,48,37,26,15,
(276)
{2}4h[16:7]/8h[2:1],(277),
(278)
{2}1-6[1:1]/5h[2:1],(279),
(280)
{2}1b,(281)15,
(282)
{2}2h[2:1]/6h[16:7],(283),
(284)3h[16:7]/7h[2:1],(285),
(286)
{2}4h[2:1]/8-3[1:1],(287),
(288)
{2}8b,(289)48,
(290)
{2}1h[16:7]/5h[2:1],(291),
(292)
{8}4h[8:3],3h[8:3],{4},(293),,
(294)
{8}1h[8:3],2h[8:3],{4},(295),,
(296)
{8}5h[8:3],6h[8:3],{4},(297),,
(298)
{8}8h[8:3],7h[8:3],{4},(299),,
(300)
