&title=Melodiniq
&artist=onoken a.k.a. owl*tree
&first=0.007000001
&des_5=Hakusei
&lv_5=14+
&des=Hakusei
&inote_5=(193){4},,,,{2}4h[2:3],
B6h[16:17],
{1}E6h[8:5],
{2}6h[2:3],B3h[16:17],
{1}B4h[8:5],
{2}8-4[2:3],{16}B1,B2,{8}B3,{16},,,,B7,
B6,{8}B5,{16},,,,B8,C,{8}B4,,,{2}3h[2:3],
{16}5,6,{8}7,{16},,,,6,
7,{8}8,{16},,,,7,8,{8}1h[8:3],{24},,,,,,8b>8b[2:5],
B8,C,B4f,{1},,{4},,,{16},{48},{1}2h[1:1],
1b-4-6-2b[2:3],
{8},,,,,,,,E7h[2:3]/E6h[2:3],
{16},,,,E1,E2,{4}E3,{16}E2,E3,{8}E4,
,C,,,{4}E2,E8,
{8}E3h[2:3]/E4h[2:3],{16},,,,E1,E8,{4}E7,{16}E8,E7,{8}E6,
,E5,{4}E5,B7/E7/B6,Ch[4:1],
,A6h[2:3]/D6h[2:3]/A5h[2:3],{2}2-8[8:1],
{4}1-3[8:1],{8},,,,4,4,
3h[8:7],{16},,,,5x,6x,{4}7x,{16}6x,7x,{8}8xh[8:3],
,2,{4}2h[2:1],{8}8,7,{4}6h[4:1],
{16}4,5,4,5,4,5,4,5,{12}3,6,3,6,3,6,
{8}3,6,3h[4:3],{24}5,4,,2,1,8,7,6,5,{12}4,{24}2,1,8,7,
{8}6,2,4,1,8/6,5,{16}3,4,2,4,
{8}3,{16}6,5,{8}7,8/4,1-7[8:1],1,{4}4-8[8:1],
{8}4/8,7,7,1,2/4,3,5/7,6,
{16}4,3,2,1,4,3,2,1,8/4,7/3,6/2,5/1,{4}8/4-8[8:1],
{8}4/1,2,3,4/8,{16}7,5,{8}6,{16}3,4,2,5,
{4}3-8[8:1],8/3,{8}7,{16}7,6,5,4,3,2,
1,8,7,6,5/3,2,1,8,7/4,5,6,7,8/2,3,4,5,
1,2,3,4,8,1,2,3,7,7h[16:3],,1,{8}1,2/8,
{4}1-6[8:1]/3-8[8:1],3/1V35[4:1],5>1[4:1],8,
7-5[8:1],7/8-4[8:1],8/4-2[8:1],{8}5,6,
{4}7v5[8:1]*v1[8:1],7-3[8:1],7,2-6[8:1],
2>5[8:1]/5-1[8:1],5/2,{8}8,8,{4}7/1,
6-4[8:1],{8}6/4,3,2/5,1,{4}4/8-4[8:1],
{8}8/7,6-2[8:1],,6,5,4,3-1[8:1],3,
8-6[8:1],8,4-2[8:1],4,1-7[8:1],1,5,5,
6,6,{16}4,7,3,6,2,5,1,4,{4}8w4[8:1],
{1}Cf/8bpp5b[8:21],
,,{4},,,{8},{16}E3,
E4,
{4}E5,{8}6,6h[4:1],,7,{4}7h[4:1],
{8}8,8h[4:1],,1,{4}1b,3b/7b,
B6,{8}4,4h[4:1],,3,{4}3h[4:1],
{16},E2,E1,E8,E7,E6,E5,E4,{12}E3,E2,E1,E8,{24},{8}E7,
{2}5xV71[4:1],{8}2xv4[16:3],,,8xh[2:1],
,,,1,{4}1pp2[8:3],{8}7,7h[4:1],
,,,6,{4}6qq8[2:1],{8}1,1h[4:1],
,,,2,,3,4,5,
{2}6<4[2:1],{8}4-2-8-6[2:1],,,5h[4:1],
,,,3,{4}3pp4>1[8:5],{8}7,7h[4:1],
,,,,6/8,7/1,2/8,1/3qq4[8:5],
,5/3,,,5,5,6,6,
5/7,8,1,2/4,{16}3,5,3,5,{8}3,4/6,
{4}5/7-1[8:1],{8}7/2,3-5[8:1],,3/6,7,8,
{16}1,3,1,3,{8}1,{16}2,4,2,4,{8}2,3/5,3/5,
{16}6,5,7,5,{8}6,{16}2,1,3,1,{8}2,4/5,4/5,
6/8,{16}7,5,{8}7,8,2/4,{16}3,5,{8}3,4/6,
{24}7,8,{12}7,{24},,2,1,{6}2,{24}4/3,,,5/6,{96},,,,,,,,{32}4,3,2,1,8,7,6,5,
{8}1b,1b,,E8,{4}E8,{8}3,3,
(196)2/4,{16}6,5,{8}6,{16}7,8,{8}7,1-4[8:1]/6-4[8:1],,1/6,
,7,7-3[8:1],1,{4}1-6[8:1]*-4[8:1],1,
{8}5,4/6,4/6,5/7,7/5,6/8<4[4:1],{16},,4V68[4:1],3,
{8}2,1x,{4}1x>5[4:1],{16}A1,A2,A3,A4,1/A5,2,3,4,
{4}5h[4:1],4>8[4:1],{16}8q4[4:1],7,6,5,{4}4<8[4:1],
8>4b[4:1],{16}4/A8,5/A1,6/A2,7/A3,{4}A4/8w4[8:1],8,
{8}6,6-4[8:1],,6,2-8[8:1],2,7-3[8:1],7,
1,1,{16}8,4,8,4,1,5,2,6,3,7,4,8,
{8}5,{16}7,8,{8}7,{16}2,1,{8}2,3/8,,2/6,
{12}3,3,5,8,8,6,4,4,7,5bh[8:3],{24},,,,,,,{8}8,
7/1,6/2,3/5,4h[4:1],{16},,5,6,
7,8,{8}1/5,{16}3,4,{8}3,{12}2/5,3/6,4/7,8b/5b>1[4:1],{48},,,,,,,,{16}1q5[4:1],
8,7,6,{4}5<1[4:1],{16}1>5b[4:1],A6,A7,A8,5/A1,6,7,8,
1,2,3,4,{4}1-4[8:1]/5-8[8:1],5-2[8:1]/1-6[8:1],5/1,
{8}7/3,{16}6,5,{8}6,{16}3,4,{8}3,2/5,3/6,4/7,
{16}5,4,3,2,5,6,7,8,2,2,1,3,3,5h[200:37],,,(206)4,
3,2,1,8/7,1,2,3,4/5,6,7,8,1/2,8,7,6,
3,4,2,5,1,6,8,7,{4}1w5b[8:1],1,
{16}2b,3,4,5,6,7,8,1,2/4b,5,6,7,8b,1,2,3,
4b,5,6,7,8b/4,3,2,1,6b,5,7,4,8,3,{8}1,
(209){16}8/1,7,6,5,4/3,5,6,7,8/1,2,3,4,5/6,4,3,2,
7,8,6,1,5,2,4,3,{4}5-8[8:1],5,
{16}2b,1,8,7,6b,5,4,3,2/5b,6,7,8,1/5b,4,3,2,
1/8b,7,6,5,4/8b,1,2,3,5b,4,6,3,{8}7,{16}7,8,
(212)6b,4,6,4,6,4,6,4,6,4,6,4,6,4,6,4,
5b,5,5,5,5,5,5,5,5,5,5,5,5,5,{8}5,
(215){16}4b,3,2,1,5b,4,3,2,1b,8,7,6,5/2b,3,4,5,
6/8b,7,6,5,4/1b,2,3,4,5/8b,7,6,5,3b,4,2,5,
(218)1b,7,1,7,1,7,1,7,1,7,1,7,1,7,1,7,
8b,8,8,8,8,8,8,8,8,8,8,8,8,8,8,8,
(221){8}7x/1bx,{16}2,3,{8}4/6b,8,{16}7b,6,{8}5/3,2b,1,
7/8,7/8,6/1,1/6,{12}3h,5,4h,7,8h,6,
(224){8}2,2,1/3,1/3,5,5,4/6,4/6,
{16}2,3,2,3,{8}2,{16}7,6,7,6,{8}7,{16}4,3,2,1,
(227){8}8/4,5,6/1,2,3/7,{24}7,6,5,{8}4/2,2,
{16}1,5,1,5,1,5,1,5,2,6,2,6,2,6,2,6,
(230)3,7,3,7,3,7,3,7,3,7,3,7,3,7,3,7,
{24}3bx,2,1,8,7,6,5,4,3,2/6bx,7,8,1,2,3,4,5,6,{4}7/2>5b[8:1],
{24}2b/1b,8/A3,7/A4f,6h[400:749]/A5fh[8:15],{1},{4},,,{16},{48},(236){4},
{8}2/8,3h,7/1,6h,2/5,3h,
4/7,6h,5/3,2h,1/5,6h,{4}8/7-4[8:1],
{8}7/1,2,3,3,5,5,{16}3,4,{8}3h[4:1],
,5,4/6,5/7,{4}6-4[8:1]/8-4[8:1],6/8,
B3h[4:1],{8}6,6,2h,4,8h,6,
3/7,3/7,1/5,5/1,2h,4,8h,6,
{4}7h[4:1],{8}1,3/4,7,6/5,1/2,3pp7[2:1]/8pp7[2:1],
,,,,,,,,{4}3h[4:1],
5,{16}D3,A2,{8}D2,7,7,
,6/5,{4}5/6h[4:1],{16}D7,A7,{8}D8,,,{4}2h[4:1],
8,{16}D3,A3,{8}D4,6,6,
3/4,3,{4}3h[4:1]/4h[4:1],{16}A5,D6,A6,D7,{4}A7fh[2:1],
{8},1,{4}1h[4:1],{8}2,2,3,3,
4/5,4/5,5/6,5/6,6/7,6/7,7/8,7/8,
{4}1/8h[4:1],{8}2,2/7,2,6,6/3,6h[4:1],
{16},,3,4,{8}3,{16}6,5,{8}6,{16}2,4,2,4,2,4,
(240){4}2w6[8:1],B2f,{16}4,3,2,1,4,5,6,7,
{8}4-8[8:1],4,3,2,1>4[8:1],1,1/8,7,
{16}6,5,4,3,2,1,8,7,6/1<5[4:1],2,3,4,{4}5V71[4:1],
{8}2,2,3,3,4/6,7h[8:1],{24}5,4,3,2,,,{8}8,
8/2,7,7/1,{12}6,5,6,5,6,5,
{16}6/4,3,2,1,8/7,6,5,4,3/2,1,8,7,{4}6h[4:1],
{24}8,7,6,5h[4:1],,,,,,7,6,5,{4}4h[4:1],{8}8,8,
6/2,2/6,5,{24}1,2,3,{8}6,6,{16}7,5,{8}7,
2-5[8:1],2,8-4[8:1],8,3-8[8:1],3,5-1[8:1],5,
{16}2,3,4,5,8,7,6,5,1,2,3,4,7,6,5,4,
2,3,2,3,{8}2,{16}7,1,7,1,{8}7,{16}4,5,4,5,
{8}4h[4:1],{24}6,7,8,{8}1,3,{2}2w6b[8:1],
{8}8-4[8:1],8,2-5[8:1],2,6-1[8:1],6,3-8[8:1],3,
{16}7,6,5,4,1,2,3,4,{8}5/6,5/6,4/7,3,
{24}8/3,7,6,5,,,,,,7/2,6,5,{4}4,{24}6/1,5,4,3,,,{8}1,
1,{4}2-5[8:1]/8-4[8:1],2/8,3x/6x,
{16}4,3,2,1,5,6,7,8,2,3,4,5,3,4,5,6,
{24}1,2,3,4,5,6,{4}7/8h[4:1],{24}7,6,5,4,3,2,{4}1/8,
{16}7,6,5,4,3/8b,2,1,8,7/3,2,1,8,7/3b,4,5,6,
7/1b,2,3,4,5/1b,2,3,4,5b,6/4,3/7,2/8,{4}1b,
{16}2,3,2,3,2,3,2,3,2,3,2,3,2,3,2,3,
2,1,8,7,3>7[4:1],4,5,6,A3/7<3b[4:1],A2,A1,A8,A7,A6,A5,A4,
1/A3,8,7,6,5/3,2,1,8,7,6,5,4,3,1,3,1,
3,1,3,1,{24}2b/8,7/1b,6/8b,5/7b,6b,5b,4q7<4b[0.5##6]*p1>4b[0.5##6],3b,2b,1bh[#0.375],,,,,,,,,(160){1}A4f/E5/E4,
,,(240),
{8},,,,,,,,A6fh[4:11]/E6h[4:11]/D6h[4:11],
,,,,,,E1,
{16},E2,,,{8}E3,B2,{16},B3,,,B4,,,C,
,,,,{4}C,
E
