&title=WE ARE HARDCORE
&artist=lixound
&first=-0.57
&des=WE ARE SCAU!!
&lv_5=14+
&inote_5=(186)
{8},,,,,,,,
,,,,,5x/4x,
{32}A6,E6,B5/B4,E4,{8}A3,
6xh[8:1],5x,6h[8:1],4,6h[8:1],5,6h[8:1],4,
6h[8:1],5,6h[8:1],4,6h[8:1],5,6h[8:1],4,
3h[8:1],4,3h[8:1],5,3h[8:1],4,3h[8:1],5,
3h[8:1],4,3h[8:1],5,3h[8:1],4,3h[8:1],5,
4b/6h[16:1],6h[16:1],5/6h[16:1],6h[16:1],4/6h[16:1],6h[16:1],3/6h[16:1],6h[16:1],
5b/3h[16:1],3h[16:1],4/3h[16:1],3h[16:1],5/3h[16:1],3h[16:1],6/3h[16:1],3h[16:1],
8b/7h[16:1],7h[16:1],1/7h[16:1],7h[16:1],6b/2h[16:1],2h[16:1],5/2h[16:1],2h[16:1],
{16}2/4b,,3,4,3,,6,5,6,,2x,1x,{32}2x,3,4,5,6,7,8,1,
{16}2b/6b,,,,7x/4x,,6,5,6,,3,4,2,,1,,
2/8,,7,,6/3,,4,5,4,,6,5,7,,8,,
7/1,,2,,3/6,,5,4,5,,3,4,2,,1,,
8x-4[8:1],1,7,1,8x,,,3x,5xh[8:1],,4x,6xh[8:1],,5x,7xh[8:1],,
1b,,2,4,3,,6,5,7,,1,8,2,,3,,
4b/8b,,7,5,6,,3,4,2,,8,1,7,,6,,
{4}5bs1[8:5]/1b>8[8:11],,,,
B2/E3/B3,B5/E5/B4,E7/B7/B6,E1/B8/B1,
{32}1xh[4:7]/A7,B7,Cf,B3,{8}A3,,,,,,,,,,,,,{4}Cf,
{32}8xh[1:1]/A2,B2,Cf,B6,{8}A6,,,,,,,{4}7x-2[8:1],
6x-3[8:1],{2}1xw5[8:1],
7xh[4:7]/3xv5[8:1],4xv6[8:1],
5xv7[8:1],{4}8x-4[8:1],Cf,
{2}2xh[1:1]/3xv1[8:1],8xv6[8:1],
{4}B1f/E2/B2/7x-4[8:1],E7f/B7/B6/3x-8[8:1],{2}E3f/B2/B3/5xw1b[8:1],
{8}7pp4[8:4],,,4x,{2}2bx,
{8}2qq5[8:4],{16},,,,5x,6x,{2}7bx,
{8}6qq1[8:4],,,4x,{2}2bx,
{16}3pp8[8:4],,,5,,,{8}6,{2}7b,
{8}7b/1b,2,3/8,7,6/2,3,4/7,6,
5b/4b,3,2/6,7,8/3,2,8/1,7,
{16}6b,5,7,4,8,3,1,2,1b,2,8,3,7,4,6,5,
{4}6b,{16}E6,B5,B4,E4,{8}B8/B7,{16}E2,B2,{8}B6/B5,B3/B4,
{4}8bx,{16}7x,5,6,4,7v4[8:1],5,6,4,{4}7x,
5/2,{16}3x,4,3,2,3-1[8:1],4,3-7[8:1],2,,,,,{4}8bx,
{16}7x,8,7,8,6V48[4:1],5,6,5,{8}6x,3x,
{4}1b,{16}8x/1x-5[8:1],2,3,4,{4}5xV73[4:1],{8}3x-7b[8:1],2x,
{4}A3f,{16}2x,6,2,6,3v1[8:1],7v5[16:3],3,7,,,,,{4}8bx,
{16}6x,5,6,7,6-8[8:1],5,6-2[8:1],7,,,,,{4}1bx,
{16}2x,1,3,4,2-5[8:1],1,3,4,{8}2x,7x-4[8:1],
,7x/3x-8[8:1],,3x,{32}7bx,6,5,4,3,2,1,8,{4}7/3,
{8}8<5[16:3],2,4<7[16:3],2,8<5[16:3],2,4<7[16:3],2,
8<5[16:3],2,4<7[16:3],2,8-4b[8:1],2,{4}1b,
{8}1>4[16:3],7,5>2[16:3],7,1>4[16:3],7,5>2[16:3],7,
1>4[16:3],7,5>2[16:3],7,1,8,{32}E8/E2,B7/B2,B6/B3/C,E6/E4,,,,,
{8}4xq8[4:1],5x,8xq4[4:1],1x,4xV68[4:1],6x,8xV24[4:1],1x,4x<8[4:1],7x,8x>4[4:1],1x,4v6b[6:1]*-7b[6:1],5x,,,
8x/5x,8,7x/4x,7,6x/3x,3,2x/5x,2,
1x<7b[8:1],7x<5[8:1],5x>3b[8:1],3x>1[8:1],{2}1xs5[4:1]*s5[4:1],
{1}Ch[1:4],
{8},4xV25[2:1],,,,,,,{1}6xV42[2:1],
{8},2x-8[8:1],,,,7x-1[8:1],,,,,3h[8:4],
4,,4,{16},,3,4,
{4}2,{8}6h[8:4],5,,5,{16},,6,5,
{4}7,{8}1h[8:3],8,,7xh[16:5],{16}8x,1,2,3,
{4}4b-8[8:4]/8bz4[8:4],,,,
{16}2h[8:1],,,8,1-4>2[4:1],,,,1,,6,,7,,8,,7h[8:1],,,1,8-5<7[4:1],,,,8,,3,,2,,1,,2<7[8:1],,3,,4,,5>2[8:1],,6,,7,,8,,1<6[8:1],,2,,3,,4,,5,,6x-1[8:1],,6x-3[8:1],,6x,,6x,,
8xh[4:1],,2,,2,,7xh[4:1],,1,,1,,6xh[4:1],,8,,8,,5xh[4:1],,7,,7,,
8x-4b[8:1],1,2,3,4/8b,,,,3/5,,2,,4/6,,7,,1,8,1,8,1-6b[8:1]*z5z1[4:3],8,2,7,1b,,,,,,,,,,,,,,,,
{16}2v5[8:1],,5-3-1[8:1],,2,,6,,7,6,5,4,8,7,6,5,7v4[8:1],,4-6-8[8:1],,7,,3,,2,3,4,5,1,2,3,4,2>5[8:1],,3,,2/6,7,8h[8:1],,6>3[8:1],,8,,6,,8,7,6-1b[8:1],,,2,6,,2,3,4-8b[8:1],,,7,4,,,,
1/6,,2,5,3>8[8:1],4,2,,3b,,,,7-3[8:1],8,6,1,7b,,,,1xh[8:3],,,,2,3,4,5,
{32}6/2,3,4,5,6,7,8,1,
{16}2xbs6<4b[4:3],,,,,,,,,,,,,,,,8-3-7b[4:1],,,,,,,,,,,,
{24}2x,3x,4x,8x,7x,6x,
{16}1b>3[8:1],,5,,1-5[8:1]/6,,7,,1>3[8:1]/6,,4,,1-5[8:1]/6,,7,,1/8-4<7[4:1],7,6,,4/8,,2,,1-5b[8:1],2,3,,1,,7,,
8<6[8:1],,4,,8-4[8:1]/3,,2,,8<6[8:1]/3,,5,,8-4[8:1]/3,,2,,8/1-5>2[4:1],2,3,,5/1,,7,,8-4b[8:1],7,6,,8,,2,,
1b/6b,,2,5,3,4,2,,1b/8b,,2,7,3,6,4,,3b/8b,,4,7,5,6,3,4,2,5,1,8,1,8,
{32}1x,2x/8x,3x/7x,4x/6x,
{4}5xbv2>4v1[4:2]*v8<6v1[4:2],,,,
{16}7,,7,2,,2,6,,1-5b[8:1]/8-4b[8:1],,2/7,,1b/8b/Cf,,,,
{8}3-5-2[4:1],5,3,6-1[8:1],7,6,2>5[8:1],3,2/8-4[8:1],7,8/2v5b[8:1],3,2/8<5[8:1],7,
{24}4b/8,3,2,1,,,
{8}1>4[8:1],5,
{24}1/5b,6,7,8,,,
{8}8<5[8:1],4,
{24}4b/8,3,2,1,,,
{16}1x,5,2,6,1x,5,2,6,1x,2,3,4,
{32}6xb,5x,4x,3x,2x,1x,8x,7x,
{8}6x-4-7[4:1],4,6,3-8[8:1],2,3,7<4[8:1],6,7/1-5[8:1],2,1/7v4b[8:1],6,7/1>4[8:1],2,
{24}1/5b,6,7,8,,,
{8}8<5[8:1],4,
{24}4b/8,3,2,1,,,
{8}1>4[8:1],5,
{24}1/5b,6,7,8,,,
{16}7x,3,7,3,6x,2,6,2,5xh[8:1]/1xh[8:1],,,,
{32}1b/5b,2b/6b,3b/7b,4b/8b,,,,,
{16}5h[8:1]/7h[8:1],,,4h[8:1]/6h[8:1],,,3h[8:1]/5h[8:1],,,2h[16:3]/4h[8:1],,,
{24}1b,8,7,6,5,4,
{16}3-8b[8:1],,,B5/B6/E6f,,,7-4b[8:1],,,B1/B2/E2f,,,3b,,,,
2h[8:1]/4h[8:1],,,3h[8:1]/5h[8:1],,,6h[8:1]/4h[8:1],,,5h[8:1]/7h[16:3],,,
{24}8b,1,2,3,4,5,
{16}6<1b[8:1],,,B4/B3/E4f,,,2>5b[8:1],,,B8/B7/E8f,,,6b,,,,
{8}5/6,7,3/4,2,5/6,8,3/4,1,7/8,3/4,1/2,5/6,2/4,5/7,1/3,8/6,
{16}1,5,2,6,1,5,3,7,4,6,1,8,3,5,1,8,2/6,,3/7,,4/8,,1/5,,
2/6,1/5,4/8,3/7,
{32}2/6-2b[12:1],5,4,3,2,1,8,7,
{4}6/2b<2>1[4:13]/Cf,,,,,,,,,,,,,,,,
1v4[4:2]/8-5[4:2],,,,4<1[4:2]/5>8[4:2],,,,1s5[4:3]*s5[4:3],,,,
&inote_7=(186)
{8},,,,,,,,
,,,,,5x/4x,
{32}A6,E6,B5/B4,E4,{8}A3,
6xh[8:1],5x,6h[8:1],4,6h[8:1],5,6h[8:1],4,
6h[8:1],5,6h[8:1],4,6h[8:1],5,6h[8:1],4,
3h[8:1],4,3h[8:1],5,3h[8:1],4,3h[8:1],5,
3h[8:1],4,3h[8:1],5,3h[8:1],4,3h[8:1],5,
4b/6h[16:1],6h[16:1],5/6h[16:1],6h[16:1],4/6h[16:1],6h[16:1],3/6h[16:1],6h[16:1],
5b/3h[16:1],3h[16:1],4/3h[16:1],3h[16:1],5/3h[16:1],3h[16:1],6/3h[16:1],3h[16:1],
8b/7h[16:1],7h[16:1],1/7h[16:1],7h[16:1],6b/2h[16:1],2h[16:1],5/2h[16:1],2h[16:1],
{16}2/4,,3,4,3b,,6,5,6b,,2x,1x,{32}2x,3,4,5,6,7,8,1,
{16}2b/6b,,,,7x/4x,,6,5,6,,3,4,2,,1,,
2/8,,7,,6/3,,4,5,4,,6,5,7,,8,,
7/1,,2,,3/6,,5,4,5,,3,4,2,,1,,
8x-4[8:1],1,7,1,8x,,,3x,5xh[8:1],,4x,6xh[8:1],,5x,7xh[8:1],,
1b,,2,4,3,,6,5,7,,1,8,2,,3,,
4b/8b,,7,5,6,,3,4,2,,8,1,7,,6,,
{4}5bs1[8:5]/1b>8[8:11],,,,
B2/E3/B3,B5/E5/B4,E7/B7/B6,E1/B8/B1,
{32}1xh[4:7]/A7,B7,Cf,B3,{8}A3,,,,,,,,,,,,,{4}Cf,
{32}8xh[1:1]/A2,B2,Cf,B6,{8}A6,,,,,,,{4}7x-2[8:1],
6x-3[8:1],{2}1xw5[8:1],
7xh[4:7]/3xv5[8:1],4xv6[8:1],
5xv7[8:1],{4}8x-4[8:1],Cf,
{2}2xh[1:1]/3xv1[8:1],8xv6[8:1],
{4}B1f/E2/B2/7x-4[8:1],E7f/B7/B6/3x-8[8:1],{2}E3f/B2/B3/5xw1b[8:1],
{8}7pp4[8:4],,,4x,{2}2bx,
{8}2qq5[8:4],{16},,,,5x,6x,{2}7bx,
{8}6qq1[8:4],,,4x,{2}2bx,
{16}3pp8[8:4],,,5,,,{8}6,{2}7b,
{8}7b/1b,2,3/8,7,6/2,3,4/7,6,
5b/4b,3,2/6,7,8/3,2,8/1,7,
{16}6b,5,7,4,8,3,1,2,1b,2,8,3,7,4,6,5,
{4}6b,{16}E6,B5,B4,E4,{8}B8/B7,{16}E2,B2,{8}B6/B5,B3/B4,
{4}8bx,{16}7,5,6,4,7v4[8:1],5,6,4,{4}7x,
5/2,{16}3,4,3,2,3-1[8:1],4,3-7[8:1],2,,,,,{4}8bx,
{16}7,8,7,8,6V48[4:1],5,6,5,{8}6x,3x,
{4}1b,{16}8x/1x-5[8:1],2,3,4,{4}1/5V73[4:1],{8}3w7[8:1],2,
{4}A3f/E4/E3,{16}2x,6,2,6,3v1[8:1],7v5[16:3],3,7,,,,,{4}8bx,
{16}6,5,6,7,6-8[8:1],5,6-2[8:1],7,,,,,{4}1bx,
{16}2,1,3,4,2-5[8:1],1,3,4,{8}2x,7x-4[8:1],
,7x/3x-8[8:1],,3x,{32}7bx,6,5,4,3,2,1,8,{4}7/3,
{8}8<5[16:3],2,4<7[16:3],2,8<5[16:3],2,4<7[16:3],2,
8<5[16:3],2,4<7[16:3],2,8-4b[8:1],2,{4}1b,
{8}1>4[16:3],7,5>2[16:3],7,1>4[16:3],7,5>2[16:3],7,
1>4[16:3],7,5>2[16:3],7,1,8,{32}E8/E2,B7/B2,B6/B3/C,E6/E4,,,,,
{8}4xq8[4:1],5,8xq4[4:1],1,4xV68[4:1],6,8xV24[4:1],1,4x<8[4:1],7,8x>4[4:1],1,4v6b[6:1]*-7b[6:1],5,,,
8x/5x,8,7x/4x,7,6x/3x,3,2x/5x,2,
1x<7[8:1],7<5[8:1],5>3[8:1],3>1[8:1],{2}1s5[4:1],
{1}Ch[1:4],
{8},4V25[2:1],,,,,,,{1}6V42[2:1],
{8},2-8[8:1],,,,7-1[8:1],,,,,3h[8:3],
4,,4,{16},,3,4,
{4}2,{8}6h[8:3],5,,5,{16},,6,5,
{4}7,{8}1h[8:3],8,,7xh[16:5],{16}8x,1,2,3,
{4}4-8[8:3]/8z4[8:3],,,1-5[8:1],
{8}1b/8,7,{16}6,4h[8:1],,,{8}5/3,{16}2,4,{8}2>5[8:1],1,
8/2x,7,6/4,{16}3,5,{8}3,{16}4,5,3>8[8:1],5,{8}4,
6/3x,6,{16}7,8,{8}7,6/1,{16}7,8,{8}7<4[8:1],2,
7x/3,2,{16}1,8,{8}1,7/2,{16}6,3,5<8[8:1],4,6,3,
{8}5bx,2<7[8:1],3,4x,5>2[8:1],6,7x,8<5[8:1],
1,2x,3>8[8:1],4,{4}5xh[8:7],{8}7,7,
8,8,1,1,{16}2,5,2,6,2,7,2,8,
1-3[8:1],1,1-7[8:1],1,{8}1x-5b[8:1],1x,{4}1x,Cf,
{8}3b/4b,1/8,6/5,{16}7,5,{8}7,{16}4,3,2/1,8,7,6,
{8}5b/4b,7/8,1/2,{16}3,8,{8}3,{16}7,6,5/4,3,2,1,
{8}8b/7b,{16}6x,5x,,3,4,3,{8}4b,{16}3,2,1/8,7,6,5,
{8}4b/3b,{16}3x,4x,,6,5,6,{8}5b,{16}6,7,8/1,2,3,4,
{8}5b/6b,{16}7,5,6,4,5,3,{8}7b,{16}2,4,3,5,4,6,
2b,4,2,7,5b,7,1,8,{8}7b/2b,{16}3x,6,4,5,4,5,
{8}3x/6x,2xh[2:1],,4xV68[4:1],,4x,{4}2xh[8:5],
{8}1x,1x,,4,3/5,6/2,{4}1/7,
{8}8b/1b,{16}7,5,{8}6,{16}3,4,{8}2,{16}8,7,6/8x,1,2,3,
{8}4b/5b,{16}6,8,{8}7,{16}2,1,{8}3,{16}5,6,7/5x,4,3,2,
{8}1b/8b,{16}2,4,{8}3,{16}6,5,{8}7,{16}1,2,3/1x,8,7,6,
{8}5b/4b,{16}3,1,{8}2,{16}7,8,{8}6,{16}4,3,2/4x,5,6,7,
{8}8b/1b,{16}2,4,3,5,4,6,{8}1b,{16}7,5,6,4,5,3,
{8}8b,{16}4,7,3,6,2,5,{8}1b,{16}5,2,6,3,7,4,
8h[16:3],,,4h[16:3],,,{8}7h[16:3],{16},3h[16:3],,,{8}6,5/2,
{16}1h[16:3],,,5h[16:3],,,{8}2h[16:3],{16},6h[16:3],,,{8}3,7/4,
5/8<5[4:1],4,8/5pp8[8:5],4,3,2,1,8x<5[4:1],
1,2,3,4,5x,6,7/4>1[4:1],8,
1pp4[8:5],8,7,6,5,4x>1[4:1],5,6,
7,8,1x/7,6,5/4,3,2/1,8,
7v2[16:3],6,5,4v7[16:3],3,2,1v4[16:3],8,
7,6,5v2[16:3],6,7,8v5[16:3],1,2,
3v8[16:3],4,5,6,7,8,1,2,
3/4,6/5,7/8,1/2,5/7,2/4,6/8,1/3,
{16}2-5[16:1],,,7-4[16:1],,,{8}8-3[16:1],{16},6x,,,{8}6x/5x,6x/5x,
{16}8/7-4[16:1],,,7/8,,,{8}1/2-5[16:1],{16},2/1,,,{4}1/8,
{16}7-4[16:1],,,2-5[16:1],,,{8}1-6[16:1],{16},3x,,,{8}3x/4x,3x/4x,
{16}1/2-5[16:1],,,2/1,,,{8}8/7-4[16:1],{16},7/8,,,{8}8/1,2/7,
6/3h[16:1],3h[16:1],4/3h[16:1],3h[16:1],2/3h[16:1],3h[16:1],8/3h[16:1],3h[16:1],
5b/6h[16:1],6h[16:1],7/6h[16:1],6h[16:1],1/6h[16:1],6h[16:1],3/6h[16:1],6h[16:1],
{16}5b,6,5,6,4,7,4,7,2b,1,2,1,3,8,3,8,
5b,7,5b,7,3b,1,3b,1,2b,6,2b,6,{32}2x,1,8,7,6,5/7,4/8,3/1,
{1}2-4v5-7[2:3]*-4v5-7[2:3],
,6V84[2:3]*v4[2:3],
,1z5[2:3]/8s4[2:3],
,3<1[4:3]*<1[4:3],
