&title=99 Glooms
&artist=Sta
&first=0
&des=Tachi.mia
&des_5=AIIA
&lv_5=14
&lv_6=14
&inote_5=(185){4},{16},,,,,,,,,,,,,4/5,
,,,,,,,,,,,,,,,3,
,,,3,,,,8,,,,8,{8},{16}3,
4,{8}5,{16}7,6,{8}5,{4}3h[8:3],{32}1,8,7,6,{8}5,
{16},4b/5-7[8:1],,,,3,,,,3,,4,,3,,,,3/5h[4:1],
,,,3,,6,,3,,5,,3,,4,
,3,,,,3,,5,,4,,6,,5,,7,
,4,,3,,6,,5,,3,,2,,5,,4,
,6b/3v4[8:1],,,,6,,,,6,,5,,6,,,,6/4h[4:1],
,,,6,,3,,6,,4-1[8:1],,6,,4,
,6h[4:1],,,,3,,2,,7,,6,,4,,3,
,6,,5,,3,,2,,6,,5,,3-8[8:1],4,2,
5,3b,,,,6,,6,,3,,6,,6,,4h[8:3],
,6,,,,6,,6,,3,,6,,6,,5h[8:3],
,6,,,,6,,6,,3,2,1,,7,6,5,
,1,2,3,4,{8},{16}6,5,7,,,,3/4,,,,5/1b>6[2:1],
,,,8,,,,8,,,,8,,,,4/8b<3[2:1],
,,,1,,,,1,,,,1,,,,2v8[8:1]*v4[8:1],
,,,2-7[8:1]*-5[8:1],,,,2-6[8:1],,,,2b,,,,5,
4,3,1,8,7,4,3,2,8,7,6,3,2,{48}1,,7,
,6,,{16}5h[2:1],,,,4,,3,,2h[2:1],,,,8,,7,
,6h[2:1],,,,3,,4,,5h[2:1],,,,7,,8,
,1qq5[2:1],,,,3,,,,3,,,,3,,,,4V62[2:1],
,,,5,,,,8,,,,8,,,,7z3[2:1],
,,,4,,,,4,,,,2,,,,2s6[2:1],
,,,5,,,,5,,,,7,,,,8h[2:1],
,,,1,,1,,2w6[8:1],,,,2b,,,,3,
,3/4,,6,,6/5,,1/2,,1/2,,8,7,6,
5,3b/4h[8:3],,2,,1,,8h[2:1],,7,,6,,5,,4h[2:1],
,3,,2,,1,,8h[2:1],,7,,6,,5,,4,
,6,5,7,,2qq5[8:3],,,,,,,,,,,,7,
6,5,4,3,2,1,8,3,4,5,6,7,8,1,
2,5,,6,,3,,5,,6,,4h[8:3],,5,,,,5,
,6,,3,,5,,6,,5/3,,2,,4/6,
,7,,8/2,,8/2,,7/3,,7/3,,6/4,,6/4,,5,
,5,6,7,8,5,4,3,2,7,6,5/3,,2b/6b,,{32}8b,1/7,
2/6,3/5,{16}4,{1},,,,{4},,{16},2,
,3,,4q6[4:5],
{8},,,,,,,,,,,,,,,,,{16}5,
4,6,3,5,4,6,3,7,2,8,1,7,2,
6,3b-8[8:1],,,,,,7b-4[8:1],,,,,,2b-5[8:1],,,,,,4b-7[8:1],
,,,,,8b-3[8:1]*-4[8:1],,,,,,,,5b-2[8:1],
,,,,,4b-7[8:1],,,,,,1b-6[8:1],,,,,,3bV14[16:3]*V15[16:3],
,,,,,,,6b,7b,8b,,,,5b/4-8[8:1],
,,,,,7b-3[8:1],,7,,,,4b-1[8:1],,4,
,,,6b-3[8:1],,6,,,,2bV85[16:3]*V83[16:3],{8},,,,,{16}6b/2b-5[16:1],
{8},{16}4b-7[16:1],{8},6b-1[16:1],{16},8bw4[8:1],,,,8b,
,,,6,7,8,4,3,2,6,7,8,4,3,
2,1bV73[2:1],,,,,,6-4[8:1],,6,,,,,,,,2b-6[8:1]/5b-1[8:1],
,,,,,,,3,4,2,5,1,6,8,
7,5,,4,,3,,8,,7,,6,,3,,4,
,2b-6[8:1]/6b-2[8:1],,,,,,,,4b-8[8:1]/8b-4[8:1],,,,,,,,3,
2,1,8,7,6,5,4,6,7,8,1,2,3,4,
5,1bs5[8:1],,,,7b-2[16:1],,,,7b/4h[2:1],,,,,,,,8h[4:1],
,,,3h[4:1],,,,6h[4:1],,,,5,,,,7h[8:3]/4h[8:3],
,,,,,,,5h[4:1]/3h[4:1],,,,,,,,2h[8:1]/7h[8:1],
,,,4,6,3,,5,,3,,1bv3[8:1]/5bv7[8:1],,,,,,,,,,,,2,
1,8,7,6,5,4,
3,2/7-5[8:1]*-4[8:1],,,,,,,,2-5[8:1]*-4[8:1],{8},,,{16}6,
7,{8}8b-6[16:1]*-2[16:1],{16},,,,,4b-6[16:1]*-2[16:1],,,,,,,,3,
5,2,6,1,7,2,6,4,7,3,8,2,7,1,
,6/5bs1[8:1],,,,6-2[16:1],,,,6b/3h[2:1],,,,,,,,2<5[4:1],
,,,5v7[8:1],,,,1b-4[8:1],,,,,,,,8-2[16:1],
,,,7-3[16:1],,,,6-4[16:1],,,,5w1[8:1],,,,,,,,3/5,
,,,3,,,,3,,,,3,
,,,3,,,,3,,,,3/5,,4/6,
,7/5,,,,6,,,,6,,,,6,,,,6,
,,,6,,,,7/3-5[4:1],,,,1,,,,8,
,,,7,,,,7,,,,7,,,,7,
,,,7,,,,2/6b-4[8:1],,,,1,,,,2,
,,,2,,,,2,,,,2,,,,2,
,,,3/7,,4/8,,1/5w1[8:1],,,,5,,,,4-8[8:1],
,,,4,,,,6,,,,6,,,,4,
,,,4,,,,7,,7,,3,,3,
,5,6,7,8,1,2,3,4,1,8,7,6,5,4,3,
2,1,8,5,6,7,4,3,2,6,7,8,3,2,1,7,
6,5h[8:1],,3,4,3h[8:1],,6,4,6h[8:1],,2,7,1h[8:1],,6,
2,5h[8:1],,3,4,2,,6,5,7h[8:1],,4,,3h[4:1]/4h[4:1],{4},{16}2,
1,8,6,5,4,2,3,4,6,7,8,5,4,
3,1,8,7,3,8,3,8,2,7,2,7,4,6,2b,8b,
3b,7b,,,,6,,,,6,,,,6,,,,6,
,,,3,,,,3,,,,3,,,,3,
,,,5,,,,5,,,,5,,,,5,
,,,4,,,,4,,,,4,,,,5b/4h[4:1],
,,,6,,3,,6,,,,6/4h[4:1],,,,6,
,,,3,,5,,3,,,,3/4h[4:1],,,,3,
,,,2,,3,,5,,6,,3,,4,
,6,,7,,4,,5,,7,,8,,4,3,2,
1,8/4b,,,,6,,5,,4/3h[4:1],,,,6,,,,5,
,,,3,,4,,5/6h[4:1],,,,3,,,,4V28[2:1],
,,,6,,,,6,,,,5,,,,5V71[2:1],
,,,3,,,,3,,,,4,,,,4bV61[2:1],
,,,5,,,,7,,,,7,,,,8bV63[2:1],
,,,4,,,,2,,,,2,,,,1,
,,,1,,1,,7,,7,,2,,2,
,6,,6,,4,3,2,6,7,8,3,2,1,5,6,
7,1b/8h[2:1],,4,,3,,2,,1h[2:1],,7,,6,,5,
,4h[2:1],,6,,7,,8,,1h[2:1],,6,,5,,4,
,3-6[8:1],,,,1-4[8:1],,,,,,,,8,,,,3,
,5,,3,,6,,4,3,2,1,8,7,6,
5,4/8b,,8,,4,,6h[4:1],,,,4,,3,,5h[4:1],
,4,,3,,6,,6,,4,3,2,1,8,7,6,
5,4/8,,7,,6,,5,,4,,3,,2,,1,
,8,6,5,4,3,2,1,8,7,6,2,3,4,5,6,
7,4b/8h[8:3],,,,4,,6,,2/8h[8:3],,3,,4,,5,
,7/6h[8:3],,8,,1,,2,,4/3h[8:3],,5,,6,,7,
,8/3V15[2:1],,,,3/1h[2:1],,,,,,,,,,,,6,
,6,,3,,3,,6,7,8,4,3,2,5,
6,7,8,1,5,6,7,8,1,5,4,3,2,1,5,4,
3,2,1,6,4,6,3,7,3,8,2,8,2,1b-5[16:1],,,,1/7b-3[16:1],
{8},{16}2b-6[16:1],{8},{16}8b-4[16:1],{8},3b-5[16:1],{16},6b,{8},{32}6,
7,8,1,{8}2,{16},,,,,3,5,2,6,1,7,3,
5,1b-4[16:1],{8},{16}5b-8[16:1],{8},{16}3b-6[16:1],{8},7b-2[16:1],{16},4b-1[16:1],,,,7b-2[16:1],
{8},{16}8b-5[16:1],{8},{16}6b-3[16:1],{8},4b-1[16:1]*-7[16:1],{16},,,,,8b<4[16:1],
{8},{16}2b-7[16:1],{8},{16}3b-8[16:1],{8},4b<7[16:1],{16},,,,,8,
7,6,5,3,2,1,8,6,5,4/2b,,7b/3b,,{32}1bqq5[16:25],8/2qq5[32:49],
7/3,6/4,{16}5,
E
&inote_6=(185){1},12,
{4}5,56,4,43,
{16}2,3,4,,7,6,5,,1h[4:1],,,,8b,8,,,
{4}34,5,
{16}6,5,
{8}6,3,3,
{4}3/8<5[8:1],82,
{16}3,4,
{8}3,5,6,
{4}7/1>4[8:1],18,{8}8,
{16}7,8,
{8}7,56,
{16}2,1,
{8}2,2,34,
{16}6,5,
{8}6,7,8,
{4}12,8,
{16}7,8,
{8}7,3,2,
{4}1/5<8[8:1],53,
{16}2,1,
{8}2,6,6,
{4}6/4>1[8:1],45,{8}7,
{16}6,5,
{8}6,87,
{16}3,4,
{8}3,3,21,
{16}7,8,{8}7,
{16}1,2,3,4,
{4}65,4,
{16}3,3,
{8}4,5,6,
{4}7/1>4[8:1],17,
{16}6,6,
{8}5,4,3,
{4}2/8<5[8:1],81,{8}1,
{16}2,1,
{8}2,43,
{16}7,7,8,7,{8},
{16}3,3,
{4}1,
{8}2b,,6<2[4:1]/5,,4,3q5[4:1],,1,,
7,6p4[4:1],,2,3>7[4:1],,6,,4,
{4}1qq5[8:5],2qq5[8:3],,,
{16}3,4,3,4,2,5,3,4,1,6,3,4,8,7,3,4,
{8}1V73[4:1],,5,6,8V64[4:1],,3,2,1V35[4:1],,8,7,6v1[4:1],,1<4[2:1],,
{1}3h[2:1],
{8}34,,,,5,4,3,2,65,
{16}4,4,
{8}5,5,3,4,3,3,1,
{16}1,2,
{8}2,1,1,3h[8:1],5h[8:1],1,87,6,54,3,12,
{16}8,8,
{8}3,54,34,3,56,6,21,2,
{16}8,7,6,5,
{8}4/3V15[4:1],,6,7,8V64[4:1],,5,3,1V35[4:1],,5,7,1v3[4:1],,3>5[2:1],,
{1}4h[2:1],1p6[2:1]/2pp5[2:1],
{8}65,
{16}3,3,
{8}4,4,3,4,4,2,2,
{16}1,1,
{8}2,2,1,1,2,2,78,6,54,3,12,8,7,65,
{16}3,4,3,4,1,8,1,8,2,2,7,7,3,3,
{24}6,7,8,
{1}1b/4,
,,,
{2},
{8},,
{12}3pp6[1.6##1],4,5,
{1},,
{4},
{16},,2,2,4,4,1,1,6,6,
{32}8,1,2,3,
{8}4/8b-5[8:1],,,4b-1[8:1],,,6b-3[8:1],,,2b-7[8:1],,,4bV61[4:1],,,,4b-1[8:1],,,8b-5[8:1],,,3b-6[8:1],,,7b-2[8:1],,,,
{16}3b,4b,
{8}5bqq2[4:1],,1b-6[8:1],,,3b-8[8:1],,,7b-4[8:1],,,2b-5[8:1],,,
{24}6b,7b,8bV64[4:1],
{8},,,
{16}1h[8:1],,,7h[8:1]/8h[8:1],,,6h[8:1]/5h[8:1],,,3h[8:1]/4h[8:1],,,1/2>5[16:1],,,,
{32}1-5[8:1],8,7,6,
{8},
{4}4V63[4:1],,7h[4:1],8V24[4:1],
{8},5,5<1[8:1],,2-4[16:3]*v5[16:3],,2b,,,,
{16}4,4,6,6,3,5,3,5,26,,3,4,3,,65,,1,8,1,,1,,
18,,7<4[8:1],,,,7,3,2,1,8-3[8:1],,,,7,6,5,4,
2,1,8,7,6,5,4,3,1,2,8,1,7,8,6,,
{4}5s1[0.658##0.18]/4,
{24}3,4,3,4,,,
{4}4h[4:1]/5,,
{8}12,,3/4h[8:1],3,,6h[8:1]/5,5,,7h[8:1]/8,8,
{16}1,8,1,,21,,2,,3h[16:1]/1h[16:1],,5h[16:1]/4h[16:1],,26,,,,1,8,1,,21,,78,,
{4}1w5[8:1]/6,1b,,
{16}3h[16:1],4h[16:1],2h[16:1],1h[16:1],5h[16:1],6h[16:1],
{24}8,1,2,
{8}3,
{16}5,5,4,,36,,1,1,8,,27,,
45,,6<1[8:1],,,,6,2,3,4,5-2[8:1],,,,6,7,8,1,
3,4,5,6,7,8,1,2,6,6,4,4,5,3,4,,1/8z4[0.658##0.18],,,,
{24}2,1,2,1,,,
{8}1h[4:1]/8,,,,34,,12,12,,78,78,,
{4}5b-3[8:1],6b-2[8:1],7b-1[8:1],3b-6[8:1]*-7[8:1],,
{8}54,,3,4,3,,6,,5,,2,,3,3,8,
{16}2,1,
{8}2,2,4,,1,8,1,,7,,7,7,
{16}5,6,
{8}5,5,,45,,4,,3,,5,,6,,1,
{16}8,8,
{8}1,,78,,12,,34,,56,,6,
{16}5,5,
{8}6,4,3,
{16}2,2,
{8}1,1,81,,
{16}1,8,
{8}1,78,,65,,34,,12,,2,
{16}8,1,
{8}8,87,3,
{16}3,4,
{8}3,45,6,
{16}8,7,
{8}8,18,2,
{16}3,4,3,,6,5,6,,2,2,1,,7,7,
8h[8:1],,7,6,5h[8:1],,1,2,3h[8:1],,4,5,6h[8:1],,2,1,8h[8:1],,7,6,5,4,3,,21,,38,,4h[8:1]/5h[8:1],,,,
2,1,2,7,8,7,4,3,2,5,6,7,1,2,3,4,1,3,8,2,7,1,7,6,5,2,3,4,8b,7b,1b,2b,
{4}5,
{8}3,4,3,,3,,6,,6,5,6,,6,,
{4}6<4[2:1],5,5,5,
3>5[2:1],4,4,4,
54,
{8}6h[4:1],5,5h[4:1],6,
{16}6,{12},
{48}65,,,,,
{8},,3h[4:1],4,4h[4:1],3,
{16}3,{12},
{48}34,,,,,
{8},,12,
{16}2,1,
{8}2,18,
{16}7,8,
{8}7,65,
{16}3,4,
{8}3,21,
{16}1,8,
{16}1,,7,7,6,6,
{4}5pp1[2:1],4,3,2pp6[2:1],5,6,7,8qq4[2:1],4,4,3,3V57[2:1],8,1,2,3,4-8[8:1],7-5[8:1],1h[4:1],3h[4:1],5-1[8:1],8-6[8:1],2h[4:1],4h[4:1],5,
{8}12,
{16}8,8,
{8}1,34,
{16}7,8,
{8}7,65,
{16}3,3,
{8}4,18,1,
{16}6,5,
{8}7,4,
{8}3V51[4:1],4,6,7,8V26[4:1],2,3,4,5V31[4:1],1,8,7,6pp1[4:1],,2,2,3qq6[2:1]*q5[2:1],,
{2}3,
{4},
{8}65,,,,4,5,6,7,34,
{16}2,2,
{8}1,1,18,78,1,2,3,
{16}5,4,
{8}5,5,34,45,6,3h[16:1]/4h[16:1],
34,2,18,7,65,
{16}4,4,
{8}6,6,
{16}54,3,2,1,8,7,6,5,1,8,7,6,5,4,3,2,
{8}1/5>1[4:1],8,7,6,5V71[4:1],2,3,4,5p1[4:1],8,7,6,5V72[4:1],,54,,4,,3h[4:1]/4h[4:1],,,,34,,12,
{16}2,1,2,8,3,7,4,6,5,6,
{8}5,7,
{16}81,2,3,8,7,6,3,4,3,5,4,6,5,7,6,8,8,1,1,6,6,4,5,3,6,2,7,1,
{8}1b-4[16:1],,
{16}6b-3[16:1],,,2b-7[16:1],,,8b-5[16:1],,,4b-1[16:1],,,6b-3[16:1],,,,8b,8,
,,,,,,
{4}6h[4:1]/5h[4:1],
{16},,4/5h[8:1],3,2b-5[16:1],,,1b-6[16:1],,,3b-8[16:1],,,4b-7[16:1],,,1b,1h[16:3],,,8b-3[16:1],,,5b-2[16:1],,,1b-6[16:1],,,4bqq1[4:1],,,,,
{24},5,6,
{16}7b-4[16:1],,,8b-3[16:1],8,,6b-1[16:1],,,2b-5[16:1],
{8}2,,,
{16}7,8,7,8,5,4,5,4,6,6,2,2,7,7,
{24}3,2qq5[24:45],1qq5[24:44],8b/5,
