&title=Gotta Go Fast
&artist=Joseph Garrity,Russell Velázquez
&first=0
&des=TruffleShroom
&des_5=TruffleShroom
&lv_5=13
&inote_5=(250){4},{12},4x,4x,4x,2h[4:1],{24},,,,6h[8:3],,,5,
,,,,,8h[8:1],,,{12}7,,,4/2h[24:5],{24},,,4,,,,,,,{12}7,
{24}6,,,7pp3[3:1],,,,,,5,,,,,,4,,,,,,4h[4:1],
,,,,,,,,,,,7/8,,,,,,7/8,,,,,,2/1,
,,,2,,1pp8[4:1]/5pp4[24:7],,,,,,,,,,,,,{6}5h[24:5],
{24},,,,,,,5/2,,,,,,7,,,,,,8/6,,,,,,2,
,{8}4/2,{4}4-8-6[4:1],6v1-3[3:1],6x,
{24},7-5-2[24:5],,,,,,7,,,,,,6h[8:1],,,4h[8:1],,,6h[8:1],,,{12}4h[8:1],
{24},6-8-4-2[24:7],,,,,,,,,,,,,{12}1h[4:1],{24},,,,,,,,,1/3,
,,,,,2,,,,,,5,,{8}5,{4}6/7,
{24},1,,,,,{12}1,1,{24},,,,,,,,{8}6p4[4:1],2h[8:1],
,,{4}3,{24},6/4,,,,,{4}6h[24:7],
{24},4,,,,,,5h[4:1]/1V35[4:1],,,,,,1,,,,,,,{12}1x,2x,
{24}3x,,,,,,,3,,,,,,3,,,,,,7h[4:1],,,,,,,,,,,,,,,,,{4}7-3[4:1],
7-1-4[4:1],
{24}7,,,,,,,3,,,,,,4,,,,,,7h[4:1],,,,,,,,,,,,6/5,
,,,,,,,,,,{4}4h[24:7],
{24},1h[4:1],,,,,,5h[4:1],,,,,,2h[24:7],,,,,,,,,,,,2bx,
,,,,,2bx,,,,,{8}6-3[3:1],,,1-4[4:1],
{24},,,,,2-7[24:7],,,,,,,,,,{8}5-8[24:7],{24},,,,,,,3>8[4:1],
,,,,,,,,{12}3<6[3:1],,,,,{6}1w5[0.36##0.44],
{1},{4},{24},1-5[24:7]/8-4[24:7],
,,,,,8<5[4:1]/1>4[4:1],,,,,,1/8,,,,,,,{12}5xh[24:5]/4xh[24:5],
,,,,,5/4,{24},,,,,,,,,,,{8}4b/5b,
{24},,,,,,,,{12}3x/6v1[6:1],,,,,,4x/2>4pp8[8:3],
,,,,,,,,{6}5-3-1[24:5],
{24},5/7-3-5[24:5],,,,,,7,,,,,,1x,8x,7x,,,,,,,,,,,,,3,
,,3-1-7[4:1]*-5-7[4:1],{4},,,{16},,,{48},{24}2-4[8:1]/8-4[8:1],
,,,,,2-6[8:1]/8-6[8:1],,,,,,2-4[8:1]/8-4[8:1],,,,,,2-6[8:1]/8-6[8:1],
,,,,,2/8,,,,,{8}E4,E7,E2,A8,
{24},3,,,,,,3,,,,,,7h[4:3],,,,,,,{6}5,
{24},4,,,,,,4,,,,,,4/2,,,,,,7x,,,,,,7x,
,,,,,5,,,,,{12}2x,2x,2x,2x,2x,2x,
2x,2x,2x,2bx,,,,,,,,,,,,,,,,7x,
7x,7x,7x,7x,
7x,7x,7x,7x,7bx/2<7-3<6[24:11],,,2h[24:11],{24},,,,,,,,,,,,,,,,,{8}6h[12:5]/1h[8:1],
{24},,,,,,,2,,,,,2/6,
,,,,,,2<7-3<6[24:11],,,,,,2h[2:1],{4},,,{16},{48},{12}4/2,
{24},2,,,,,1h[24:5],,,,,B7/E1/C/E5,
,,,,,,,2<7-3<6[24:11],,,,,,2h[2:1],{4},,,{16},{48},{12}7,
{4}7,7,
{24},6,,,,,,4h[24:7],,,,,,,{12}5,{24},,,7,,,,,,,,,,,{4}5,
{24},6-2b[24:5]/3-7b[24:5],,,,,,3/6,,,{12}Cf,
,8,{24},1,,,{6}1,8/1h[4:1],{12},{4}6,
{24},5/3h[24:5],,,,,{4}7,{24},4/7h[4:1],,,,,,3,,,,,,,{12}3,
{24}2,,,2,,,,,,,{12}8/1h[4:1],,,{6}5,
{24},5/4h[4:1],,,,,,8,,,,,,,{12}8/1h[4:1],,,{6}5,
{24},5/4,,{8}6,{24},7,,,,,,,{12}1-5-7[4:1],,,{6}7v4-2[3:1],
{12},7x,{24},,,1,,,,,,6h[8:1],,,4h[8:1],,,6h[8:1],,,{12}4h[8:1],
{24},6h[4:1],,,,,,4b,,,,,,,{12}7,{24},,,2,,,{12}2,
{24},,,{8}7,{4}7,{24},7,,,,,,,{6}7,
{12},2b,{24},,,2b,,,,,,7h[2:1]/4-2-8-6[2:1],,,,,,,,,,,,,,,,,,5,
,,,,,,{12}7-5-3[24:7],,,,,,1,
,,{3}6-2[24:5]/3-7[24:5],{24},,,,,,,,{8}3,
3,{24},3,,,,,,3/5h[4:1],,,,,,2,,,,,,,{12}5,
4,5pp1[3:1]/4qq8[3:1],,,,,,,,,{2}6h[24:7]/3h[24:7],
{4}3,3,
{8}2,1,{4}1,{24},5-1-7[4:1],,,,,,7v2>5[3:1],,,,,,7x,
,,,,,5,,,,,,,{12}7h[8:1],{24},,,7h[8:1],,,,,,,{12}7b,
{24},,,3b,,,,,,,{12}E8/C/E4/E6/E2/D6/D2/D8/D4,{4},,,{16},,{24}6,
{12}7,{24},,,,,,2,1,
,,,,,,5,4,,,,,,7,8,1,{3}2,
E
