&title=XL TECHNO -More Dance Remix
&artist=高田聡
&first=0.315
&lv_5=14
&des_5=水是水
&inote_5=
(150){4}4h[1:1],,,,{1}5h[1:1],
6h[1:1],
7h[1:1],
{8}1,8,1,8,1,8,1,8,
2,7,2,7,2,7,2,7,
3,6,3,6,3,6,3,6,
4,5,4,5,4,5,4,5,
{16}4,5,4,5,4,5,4,5,3,6,3,6,3,6,3,6,
2,7,2,7,2,7,2,7,1,8,1,8,1,8,1,8,
1,8,1,8,2,7,2,7,3,6,3,6,4,5,4,5,
4,5,3,6,2,7,1,8,1,8,2,7,3,6,4,5,
5bx/4h[1:1],,,6,,,{8}7,{16},7,,,{8}7,8,
{16}8h[1:1],,,4,,,{8}5,{16},4,,,{8}3,4,
{16}4h[2:1],,,1,,,{8}8,8h[2:1],4,5,4,
{16}4,8,5,1,4,8,3,7,2,6,1,5,8,4,1,5,
5bx/1h[1:1],,,5,,,{8}4,{16},5,,,{8}6,5,
{16}5h[1:1],,,1,,,{8}8,{16},1,,,{8}2,1,
{16}1h[2:1],,,5,,,{8}4,5h[2:1],1,8,1,
{16}1,5,8,4,1,5,2,6,3,7,4,8,5,1,4,8,
1bx/8xh[2:1],,,3,,,{8}5,3h[4:1],6,5h[4:1],2,
{16}1h[2:1],,,4x,,,{8}8x,6xh[2:1],1x,3x,5x,
{16}1xh[16:3],,,4xh[16:3],,,{8}3xh[8:1],8xh[8:1],5xh[8:1],{4}6xh[8:1],
{16}1,4h,3,8h,5,6h,1,4,3,8,5,6,2x,5,2,5,
1b,5,1,5,2,6,2,6,3,7,3,7,4,8,4,8,
5b,1,4,8,3,7,2,6,1,5,8,4,1,5,2,6,
1b,8,2,7,3,6,4,5,2,4,3,7,5,6,4,5,
4b,5,3,6,2,7,1,8,1,5,3,8,5,6,4,7,
{8}8bx-4[8:3]/5bx-1[8:3],,,,,,,1/4,
{64}8-5[8:3]/5-3[8:3],{4},,,{16},{64}6/3,,,,,,,,,,,{8}7-3[8:3]/2-6[8:3],
,,,,,,3/6h[8:3],
{4}1-4[16:1],1-6[16:1],{2}1w5[8:1],
{16}3,7,{8}3,{16}6,2,{8}6,{16}1,5,{8}1,{16},,1,1,
,5,1,6,1,5,1,6,{8}1,1,{16},,1,2,
3h[16:3],,,4h[16:3],,,{8}5h[16:3],{16},6h[16:3],,,{8}4h[8:1],5,
{16}5,3,{8}5,{16}6,2,{8}6,{16}7,3,,2,,1,2,3,
{4}4,{16}4,6,{8}4,{16},3,{8}7,{16},2,{8}8,
{16}3,7,{8}3,{16},8-5[16:1],,3,{4}3,{8}1,1,
{16}5,1-4[16:1],,6,,,{8}6,{16},7,,,{8}7h[8:1],8h[8:1],
1h[4:1],{16},,,,8,7,6h[16:3],,,1,,,{8}1,
{16}2,6,{8}2,2h[8:1],{16}8,7,6,5,{8}4,{16},,4,1,
5,1>5[16:1],6,1,7,1,,,{8}8-5[16:1],8,8,4,
{16}4,5,{8}4,5,{16}4,5,3,6,{8}2,{32},,,7,,2,,,,,{16}1,
8,2,7,1-5[16:1],,1,,1,,,{8}7,8,
{4}8,{16}4,4,{8}8,{16},4,{8}8,{16},3,{8}8,
{16}8,2,{8}8,{16},1,,8-4[16:1],{4}8,1h[8:1],
{16}1,6,1,7,,,{8}1,{16},8,,,{8}1,1,
{2}1-4[16:1]*-6[16:1],5-2[16:1]*-8[16:1],
{16}2,8,2,8,2,8,2,8,3,7,3,7,3,7,3,7,
2,6,2,6,2,6,1,6,1,6,2,6,3,6,2,6,
3,6,4,6,5,6,4,6,3,6,4,6,3,6,2,6,
1,6,{8}1h[16:1],7,7,{2}8-3[16:1]*-5[16:1],
{16}5,3,5,3,5,3,5,3,6,2,6,2,6,2,6,2,
7,3,7,3,7,3,7,3,6,3,5,3,6,3,5,3,
5,3,5,3,5,4,5,4,6,4,7,4,8,5,1,4,
8,3,7,2,6,1,5,1,{2}5w1[16:1],
{16}2,8,2,8,2,8,2,8,3,8,3,8,3,8,2,8,
1b,8,1,7,1,6,{32}1,5b,,,{16}1,5,{32}1,7b,,,1,6b,,,1,7b,,,{16}1,
8,1,8,2,8,2,8,3,1,3,8,3,7,3,6,
3,6,{8}3h[16:1],{16}6,3,6,3,7w3[16:1],2,7,2,{4}7,
{16}4,2,8,1,7,5,8,1,4,3,8,1,6,5,8,1,
7,8,6,2,1,3,6,5,7,3,4,2,8,1,7,5,
8,1,6,5,8,1,4,3,8,1,7,2,8,3,7,4,
8,5,1,4,8,4,7,3,6,2,7,3,{8}6h[16:1],{16}3,6,
4bxh[8:1],5,,5x,4,5,4x,5,4,5bxh[8:1],{8}4,{16}4x,5,4x,5,
3bh[8:1],6,,6,3,6,3,6,3,6bh[8:1],{8}3,{16}3,6,3,6,
2bh[8:1],7,,7,2,7,2,7,1,8bh[8:1],{8}1,{16}1,8,1,8,
1bxh[8:1],8,,8,2,7,2,7,3,6bxh[8:1],{8}3,{16}4,5,4,5,
4b,5,3,6,2,7,1,8,1,8b,2,7,2,6,1,5,
8b,4,1,5,2,6,3,7,4,8b,5,1,6,2,5,1,
4bxh[8:1],8,,8,3,7,3,7,2,6bxh[8:1],{8}2,{16}1b,5,1b,5,
8bh[8:1],4,,3b,8,4,1b,5,2,6bh[8:1],{8}3,{16}4b,8,3b,7,
2bh[8:1],7,,8,2,7,3,6,4,5bh[8:1],{8}3,{16}2,7,1,8,
1bh[8:1],2,,3,1,4,1,5,1,6bh[8:1],{8}2,{16}3,6,4,6,
1bh[8:1],4,,8,6,5,1,4,3,8bh[8:1],{8}6,{16}1,4,3,8,
2bh[8:1],1,,8,2,1,4,7,2,1bh[8:1],5,6,2,1,5,6,
4bh[8:1],5,,3,4,2,4,1,4,8bh[8:1],{8}5,{16}6,8,7,8,
1bh[8:1],8,,8,1,1,1,1,1,8bxh[8:1],{8}1,{16}1,1,1,1,
2bh[8:1],1,,8,1,1,2,1,1,8bh[8:1],{8}1,{16}2,8,3,7,
4bxh,8,5,1,6,2,7,3,6,2,5,1,4,8,3,7,
2-5[16:1],8,{8}2,2,7-1[16:1],{16}7,5,{8}7,{32},,,,,5,,1,
,,{16}8,4,7,3,6,2,5,{8}1-4[16:1],1,1,{16}6,7,
8-3[16:3],,,3-5[32:7],{32},,,,,5-8[16:3],,,,,,8-5[8:1],,,,,{8}1,1,
{16}1,2-5[16:1],{8}3,{32},2,,,,,,,,1,,,,,{16}1,,8,7,6,
{32}5-8[16:1],,,,,,,,,5-2[8:1],,2,,2-7[16:3],,,,,,1-6[8:1],,1,,,,,,1,,,{16}5,
,5,6,5,{32},,,7-3[16:1],,,,,{16}5,5,,,,2,{32},3,,,,4,
,4,,,,,4-1[32:5],,,,,1-6[32:5],,,,,{16}6-3[8:1],{32},,,,,3,,,,2w6[8:1],,,,1,
,,,,,,,,,,,8,,8-3[16:1],,8,,,,,,8-5[16:1],,,,,,,{16}8,
,4>1[32:3],4,4,{32},4,,,,8,,7,,6,,5,,4,,,,,,,,5,,1,
,5-8[16:1],,1,,5,,1,,5,,1,,,,,,1,,,,1,,,,8,,,,,,1,
,8,,1,,8,,,,,{16}1,{32},1,,1,,1,,1,,1,,,,,,,,1,,8,
,,,1,,6,,1,,4,,1,,8,,,{8}1,1,{32},1,,,,1,,,,,{16}8,
{32},,,,,8,,1,,8,,,,,,8,,1,,,,,,8,,1v4[32:3]*v6[32:3],,,,8,
,8,,8,,,,,,5,,,,5,,5>1[4:1],,,,,,,,1v8[4:1],,,,7,,,,8v5[16:3],
,7,,6,,5,,,,,,4,,,,,,4,,,,,,5,,,,5,,,,5-2[8:1]*-8[8:1],
,,,,,,,,,,,,,,,1w5[8:1],,,,,,,,,,,,,,,,8b,
,1,,7,,2,,6,,3,,5b,,4,,3,,4,,5b,,4,,6,,3,,7b,,2,
,8b,,1,,8,,7,,8,,1,,7b,,2,,6,,3,,5b,,4,,6b,,3,,7b,,7b,
,3,,6,,1,,8,,4,,7,,2,,5,,1,,8,,4,,6,,1,,7,,3,,5,
,8,,7,,2,,5,,3,,6,,4,,7,,2,,1,,5,,8,,3,,6,,2,,7,
,1b,,8,,2,,7,,3,,6,,4b,,5,,6,,5,,4b,,5,,3,,6,,2b,,7,
,1b,,8,,1,,2,,1,,8,,2b,,7,,3,,6,,4b,,5,,3b,,6,,2b,,2b,
,6,,2,,8,,1,,5,,2,,7,,4,,8,,1,,5,,3,,8,,2,,6,,4,
,1,,2,,7,,4,,6,,3,,5,,2,,7,,8,,4,,1,,6,,3,,5,,2,
,5b,,1,,4,,8,,3,,7,,2b,,6,,3,,7,,4b,,8,,5,,1,,6b,,2,
,7b,,3,,8,,4,,1,,5,,2b,,6,,3,,7,,2b,,6,,1b,,5,,8b,,8b,
,3,,2,,3,,2,,1,,8,,1,,8,,6,,7,,6,,7,,4,,5,,4,,5,
,2,,1,,4,,3,,8,,7,,5,,6,,3,,8,,4,,7,,5,,6,,2,,6,
,1b,,5,,8,,4,,7,,3,,6b,,2,,7,,3,,8b,,4,,1,,5,,2b,,6,
,3b,,7,,4,,8,,5,,1,,6b,,2,,7,,3,,6b,,2,,5b,,1,,4b,,8b,
,3,,7,,2,,7,,2,,6,,2,,5,,2,,4,,2,,4,,3,,5,,3,,5,
,4,,5,,3,,6,,3,,6,,2,,7,,2,,7,,1,,8,,1/8,,8/1,,1/8,,8/1,
,1/8,,1,,5,,8,,4,,7,,3,,6,,2,,3/7,,4/8,,1/5,,2/6,,3/7,,4/8,,1/5,
,6/2,,7,,3,,6,,2,,7,,3,,6,,2,,7/3,,6/2,,5/1,,4/8,,3/7,,2/6,,1/5,
,4/8,,7,,3,,6,,2,,7,,3,,8,,4,,1,,5,,2,,6,,3,,7,,4,
,8,,5,,1,,6,,2,,7,,3,,6,,2,,5,,1,,4,,8,,3,,7,,2,
,6,,1,,5,,8,,4,,7/3,,8/4,,1/5,,2/6,,1,,5,,8,,4,,5/1,,2/6,,7/3,
,8/4,,3,,7,,2,,6,,3/7,,4/8,,5/1,,6/2,,5,,1,,4,,8,,3/7,,4/8,,1/5,
,2/6,,5/1,,4/8,,3/7,,2/6,,1,,5,,8,,4,,8/4,,1/5,,2/6,,3/7,,4/8,,7/3,,6/2,
,5/1,,2/6,,7/3,,8/4,,5/1,,4/8,,3/7,,2/6,,1/5,,2/6,,3/7,,4/8,,3/7,,2/6,,1/5,,8h[32:33]/4h[32:33],
E
&lv_7=1
&des_7=
&inote_7=
(150){4},
E
