&title=三日月オーケストラ
&artist=平茸;もな
&first=0
&des=三日月の舞
&lv_5=13+
&des_5=三日月の舞
&inote_5=(104)
{24},,,,,,,,,,,{48}3xh[48:1],,
{24}4,,,2,,,1,,1,8,,,
{24}7h[8:1]/5,,,,,3,,,3,,,4,
{24}2,,,E4,,,6,,E8,,,,
{24}2h[8:1],,,,,6,4^1[8:1],,,,,,
{24}4^7[8:1],,,,,,4,,,,,,
{24}1h[8:1],,,3,,,4h[8:1],,,5,,,
{24}3,,,E2,,,7,,E6,,,,
{24}3h[8:1],,,,,7,5^2[8:1],,,,,,
{24}8^5[8:1],,,,,,1h[4:4],,,,,,
{24}3,,,,,,3,,,,,,
{24}7,,,,,,7,,5,4-2[12:1],,2x,
{24},,,4/6-4[12:1],,,,,1/6,,,,
{24}3,,,,,4,3qq5[8:7],,,,,,
{24}6,,,,,,6,,,,,,
{24}7,,,,,,7,,,,,,
{24}8/E6,,,,,E5,8,,,,,,
{24}8/E4,,,,,,8pp5[8:7],,,,,,
{24}4,,,,,,4,,,,,,
{24}3,,,,,,3,,,,,,
{24}2/E4,,,,,E5,2,,,,,,
{24}2/E6,,,,,,1s5b[8:6],,,,,,
{24}7,,,,,,7,,,,,,
{24}3,,,,,,3,,,,,,
{24}5h[8:1]/3,,,1,,,6,,6/4h[24:3],,,7,
{24}5,,5,8,,8,2,,2,4,,,
{24}3h[8:1],,,8,,5,6x,,6,1,,,
{24}4h[8:1],,,2^5[8:1],,2,8x,,,,,,
{24}B6/E7,,,1,,4,3x-1[12:1],,,7-4[12:1],,,
{24}38,,,,,,2xh[8:1],,,4,,,
{24}3h[8:1]/5,,,7,,7,1x,,1,5,,,
{24}4h[8:1]/6,,,8^5[8:1],,8,2x,,,,,,
{24}B2/E3,,,4,,,6x-4[12:1],,,87,,,
{24}3,,,2,,2,4xz8b[8:6],,4,8,,,
{24}6,,,,,,6,,,,,,
{24}2,,,,,,2,,7x/3x,6x/4x,,,
{24},,,2h[8:1]/5h[8:1],,,,,1/7,,,,
{24}6/B8,,,2/C,,,5/B4,,,3b^6[24:3],,,
{24},,,5,,,7-4[12:1],,,,,,
{24}17,,,3,,3,5h[8:1],,,7-4^5-1[24:6],,,
{24},,,6,,,8-3[12:1],,,,,,
{24}38,,,4,,4,6h[8:1],,,8>4[24:3],,,
{24},,,5,,,7h[8:1],,,5,,,
{24}3h[8:1],,,2-5[12:1],,2,,,,2/8h[4:1],,,
{24},,,6,,,4,,,2,,,
{24}3/B5,,,7/C,,,B1/2,,,8b^3[8:1],,,
{24},,,3,,,5-1[12:1],,,,,,
{24}57,,,6,,6,8h[8:1],,,2-5^4-8[24:6],,,
{24},,,3,,,1-6[12:1],,,,,,
{24}16,,,5,,5,3h[8:1],,,1qq8[24:4],,,
{24},,,5,,,3h[8:1],,,1,,,
{24}7,,7,5w1b[12:1],,3,4,,,5b,,,
{24},,,,,4,5,,,,,4,
{24}5,,,5,,,2-5[12:1],,,6-8[12:1],,,
{24}2b/5b,,,,,3h[8:1],,,7,,,5,
{24}6,,,34,,,7-4[12:1],,,1-3[12:1],,,
{24}78,,,,,6h[8:1],,,4V62[24:4],,,3,
{24}5,,,,,,7,,7,1,,,
{24}2h[8:1]/4,,,6,,,7h[8:1]/5,,,3^6[8:1],,2,
{24}1,,,35,,,7-4[12:1],,,1,,,
{24}7/3-8[12:1],,,,,,3/5h[4:1],,,,,,
{24}8,,24,,,,5-2[12:1]/6,,,8-4[12:1],,,
{24}5b/7b,,,,,1h[8:1],,,3,,,5,
{24}4,,,7,,,8/1-5[12:1],,,7-4[12:1],,,
{24}61,,,,,3h[8:1],,,1^4[8:1],,,7,
{24}8,,,,,,5-2[12:1],,4,6,,,
{24}5/7-4[12:1],,,,,1p8[24:10],7,,,E5h[24:9],,,
{24},,,,,,,,,,,,
{24}B6/E7,,,4,,,E3/B2,,8,,,,
{24}1>5[8:1]/6pp8[8:1],,,,,,16,,,,,,
{24}7,,5,6,,3,,,21,,,4,
{24}6,,,E8,,,2,,E4,,,,
{24}8h[8:1],,,5,,5,6^1[8:1],,,,,,
{24}6^3[8:1],,,,,,6,,,,,,
{24}7h[8:1],,,5,,5,6,,6,1,,1,
{24}4,,4,E3,,,7,,7,E6,,,
{24}3h[8:1],,,8,,1,7^4[8:1],,,,,,
{24}4^1[8:1],,,,,,8h[4:4],,,,,,
{24}6,,,,,,6,,,,,,
{24}2,,,,,,2,,4,5-3[12:1],,7x,
{24},,,7-3[12:1]/5,,,6,,71,,,,
{24}2-6[12:1],,6,4,,,8b/2b,,,,,,
{24},,,,,,{48}A7,E8,,,,,,,,,,,
{24},,,,,,{48}E7,B7,,,,,,,,,,,
{24},,,,,,{48}E3,B2,,,,,,,,,,,
{24},,,,,,{48}A3,B3,,,,,,,,,,,
{24},,,,,,{48}E7,B6,,,,,,,,,,,
{24},,,,,,{48}E6,A5,,,,,,,,,,,
{24},,,,,,{48}A2,E2,,,,,,,,,,,
{24},,,,,,{48}E3,B2,,,,,,,,,,,
{24},,,,,,{48}B7,E2,,,,,,,,,,,
{24},,,,,,{48}B3,B8,,,,,,,,,,,
{24},,,,,,{48}A6,C,,,,,,,,,,,
{24},,,,,,{48}D4,B5,,,,,,,,,,,
{24}E2h[8:8],,,,,E8h[24:19],,,,E1h[24:15],,,
{24},,,,,,,,,,,,
{24},,,,,,,,,,,,
{24},,,,,,Cf,,,,,,
{24}35,,,1,,1,8,,46,,,8,
{24}1,,,35,,,2-8[12:1]/7-4[12:1],,,8-3[12:1],,,
{24}2b/7b,,,,,6,,,57,,,3,
{24}4,,,1,,,3-8[12:1]/5-7[12:1],,,7-4[12:1],,,
{24}53,,,,,3,,,2v3-5[24:4]/4,,,1,
{24}8,,,,,,7,,7,5,,,
{24}2h[8:1]/1,,,4,,,6h[8:1]/8,,,5^8[24:3],,3,
{24}4,,,51,,,3-8[12:1],,,1,,,
{24}7-3[8:1]/3-5[12:1],,,5,,,7/3,,,,,,
{24}5,,74,,,,2-5[12:1]/6-8[12:1],,,8-4[12:1],,,
{24}2b/6b,,,,,2,,,34,,,7,
{24}5,,,2,,,4-7[12:1]/3-1[12:1],,,1-5[12:1],,,
{24}43,,,,,8,,,6/4^7[12:1],,,3,
{24}1,,,,,,8^3[8:1],,1,7,,,
{24}5^8[12:1]/8,,,,,4qq5[24:10],5,,,E1h[24:9],,,
{24},,,,,,,,,,,,
{24}A7/E8/D8,,,21,,,A3/E4/B3,,75,,,,
{24}3qq1b[8:1]/8<4b[8:1],,,E7/B7/B6,,,83,,,,,,
{24}1b^4qq5[16:8],,,,,,,,,,,,
{24},,,6x,7x,8x,1x,2x,3x,{32}5x-3>6-4[24:12],6x,7x,8x,
{32}1x,2x,3x,4x,{24}5xh[24:12],,,,,,,,,
{24},,,,,,6,,2,4,,,
{24}38,,5,7,,3,4,,4,2,,2,
{24}7h[8:1],,,5,,5,1^6[8:1],,1,3,,,
{24}1/4^1[8:1],,,,,,45,,,,,,
{24}78,,26,,,,3,,7,5,,,
{24}1h[8:1]/6,,,4,,2,8,,5,6h[8:1],,,
{24}8,,,43,,,1,,,56,,,
{24}8h[8:1]/3,,,5,,7,1,,4^1[8:1]*^7[8:1],3,,,
{24}26,,,,,,8xbz4b[4:3],,,,,,
{24}2,,,,,,2,,,,,,
{24}6,,,,,,6,,,,,,
{24}7h[8:1],,,5,,,3,,24,,,,
{24}65,,,8,,,2-7[4:8],,5,4,,6-3b[24:43],
{24}2,,,,,,,,,,,,
{24},,,,,,,,,,,,
{24},,,,,,,,,,,,
{24},,,,,,,,,,,,
