&title=666
&artist=Roughsketch
&first=0.85
&des=Aza
&clock_count=4
&lv_5=13+
&des_5=
&inote_5=(666)
{1}6bxqq1[1:7]/2hbx[2:11],,,,,,{2},3,{1}3,3bxpp8[1:7]/7hbx[2:11],,,,,,{2},6,{1}6,{2}1x>4[1:3]/5x,5,6,6,7,7,8,8,8x<5[1:3]/4x,4,3,3,2,2,1,1,{2}4hx[4:1],4hx[4:1],3h[4:1]/5h[4:1],3h[4:1]/5h[4:1],2h[4:1]/6h[4:1],2h[4:1]/6h[4:1],1h[4:1]/7h[4:1],1h[4:1]/7h[4:1],{4}8,2,7,3,6,4,5,3,{2}4,2x/6x,{1}2x/6x,
{1}7hbx[2:1]/8hbx[2:1],{6}6,5,7x,{2}4h[4:1],{6}6,5,7x,{2}4h[4:1],{6}6,5,7x,{2}4h[4:1],{1}2hbx[2:1]/1hbx[2:1],{6}3,4,2x,{4}5h[4:1],1x,{1}3bx/7bx>2[4:5],4h[4:1],
{2}3h[4:1]/4h[4:1],6h[4:1],5h[4:1]/8h[4:1],7h[4:1],1h[4:1]/2h[4:1],4h[4:1],3h[4:1]/7h[4:1],5h[4:1],4h[4:1]/1h[4:1],8h[4:1],2h[4:1]/6h[4:1],3h[4:1]/5h[4:1],5hbx[4:1],4hbx[4:1]/6hbx[4:1],3hbx[4:1]/7hbx[4:1],2hbx[4:1]/8hbx[4:1],3b/7b,2h[4:1],1h[4:1]/4h[4:1],3h[4:1],5h[4:1]/6h[4:1],8h[4:1],{8}E2,B2,B3,E4,{2},{8}E6,B6,B7,E8,{4},{8}E4,B3,B2,E2,{4},{8}E6,B6,B7,E8,{2}1hbx[4:1],2hbx[4:1]/8hbx[4:1],3hbx[4:1]/7hbx[4:1],4hbx[4:1]/6hbx[4:1],
{2}6h[4:1]/5h[4:1],3h[4:1],4h[4:1]/1h[4:1],2h[4:1],8h[4:1]/7h[4:1],5h[4:1],{4}3x,4x,2x,5x,{2}1h[4:1],3h[4:1]/4h[4:1],6h[4:1],5h[4:1]/8h[4:1],{3}2bx,1bx,3bx,7bx,8bx,6bx,{2}4bx/5bx,{4}3h[8:1],6h[8:1],3h[8:1],6h[8:1],2h[8:1],7h[8:1],2h[8:1],7h[8:1],1h[8:1],8h[8:1],1h[8:1],8h[8:1],,2b-5[2:3]/6b-1[2:3],{1}2b/6b,,3b-8[4:5]/7b-4[4:5],,
{2}6/5h[4:1],5h[4:1],7/5h[4:1],5h[4:1],8/5h[4:1],5h[4:1],1/5h[4:1],5h[4:1],E3/5h[4:1],E2/5h[4:1],E1/5h[4:1],E8/5h[4:1],E7h[1:1]/5h[4:1],5h[4:1],4h[4:1],3h[4:1],5/2h[4:1],2h[4:1],4/2h[4:1],2h[4:1],3/2h[4:1],2h[4:1],{3}2bx/1bx,2bx/1bx,2bx/1bx,{2}3x/8x,{8}8x,7x,6x,5x,{4}3hx[4:1]/4hx[4:1],,,6,5x/7x,,,7hx[4:1]/8x,,8hx[4:1]/1<6[1:1],,2x,{1},
{4}4h[4:1],3,{2}4h[4:1],2/4h[4:1],4h[4:1],1/4h[4:1],{4}4h[4:1],8,{2}4h[4:1],4h[4:1],7/4h[4:1],4h[4:1],{4}4h[4:1],8,4h[4:1],{2}8,1x/5x,1x/5hx[4:1],{4},{2}2/1,3/8,4b/7b,,7/8,1/6,2b/5b,{4}3h[4:1]/4h[4:1],,,4h[4:1]/7h[4:1],,,5h[4:1]/6<4b[4:9],,,,E3h[2:1]/B2/B3,,{1},8hx[1:1],{4}5,6,7,8,1hx[1:1]/5,,,,4,3,2,1,8,5x,1,6x,2,7x,3,8x,{1}4,{2}1x,5x,
{1}3b/7b,2x/8x,{4}6b,5,5,5,5,5,5,5,6x,5,5,5,5,5,5,4,6b,E3,E4,E5,E6,E7,E8,E1,{1}E2h[1:1]/B2h[1:1]/E3h[1:1],{8}E7,B6,B5,E5,{4},,3b,4,4,4,4,4,4,4,3,4,4,4,4,4,4,5x,{2}3bx,2bx/4bx,6bx,5bx/7bx,{4}1b/2b,,,4b/7b,,,1b/2b,,8b,1,1,1,1,1,1,1,8x/2x,,,,1,1,1,1,2x/8x,,2x/8x,,1,1,1,1,8x,,2,,E7,E4,E6,E5,{2}A8/B8,A4/B4,A6/B6,A2/B2,,1x/7x,{4}E6,E3,E5,E4,{2}D7/E7,D8/E8,D1/E1,,
{1}2hbx[1:1]/1>8[4:7],,{1}Cf,A1/D2/A2,4h[1:2],A1/D2/A2,3h[1:2],A1/D2/A2,5h[1:2],A1/D2/A2,4h[1:2],A1/D2/A2,6h[1:2],A1/D2/A2,{2}5hbx[2:1],4hbx[2:1],3hbx[2:1],2x,{1}7hbx[1:1]/8<1[4:7],,{1}Cf,A8/D8/A7,5h[1:2],A8/D8/A7,6h[1:2],A8/D8/A7,4h[1:2],A8/D8/A7,5h[1:2],A8/D8/A7,3h[1:2],A8/D8/A7,{2}4hbx[2:1],5hbx[2:1],6hbx[2:1],7hbx[2:1],
{1}8bw4b[1:15],,,,,,,,,,,,,,,,{2}8x<5[1:3]/4x,4,3,3,2,2,1,1,1x>4[1:3]/5x,5,6,6,7,7,8,8,{2}5hx[4:1],5hx[4:1],6h[4:1]/4h[4:1],6h[4:1]/4h[4:1],7h[4:1]/3h[4:1],7h[4:1]/3h[4:1],8h[4:1]/2h[4:1],8h[4:1]/2h[4:1],{4}1,7,2,6,3,5,4,6qq1b[2:3],{1}5,,
{2}2bx/8bx,2bx/8bx,{6}3,1,4x,{2}1h[4:1],2bx/8bx,2bx/8bx,{6}7,1,6x,{2}1h[4:1],2bx/8bx,2bx/8bx,{6}3,1,4x,{2}1h[4:1],2bx/8bx,2bx/8bx,3bx/7bx,,
{2}7bx/1bx,7bx/1bx,{6}6,8,5x,{2}8h[4:1],7bx/1bx,7bx/1bx,{6}2,8,3x,{2}8h[4:1],7bx/1bx,7bx/1bx,{6}6,8,5x,{2}8h[4:1],7bx/1bx,7bx/1bx,6bx/2bx,,
{1}4b-1[1:2]/5b,5,5,5,5-8[1:2]/4,4,4,4,{2}5/4p1[1:2],5,5,5,5,5,6,7,{4}8-5b[2:1]/1-4b[2:1],E1/Cf/E5,,,{1},,,2h[2:1]/3h[2:1],6h[2:1]/7h[2:1],{2}4/5,3/6,{8}E6,B5,B4,E4,{2}C,
{2}1/2b,3/8,4/7,5/6h[2:1],1bV37[1:1],4,5,6,7/8b,1/6,2/5,3h[2:1]/4,7b-4-6[1:1],2,1,8h[4:1],1/7,3/4,{4}2,1,3,8,{2}4-8-3[1:1],5,6,7,8,8bx/4,8bx/3,8bx/2,8bx/1,2bx/7bx,4bx/5bx,3bx>8[1:1]/6bx,,{4}7x,6x,{2}5x,5,1/2,4,7/8,1b/6,{4}5,4,6,3,7,2,8,1,{4}7bx,8bx,6bx,1bx,{3}2hbx[12:1]/5hbx[12:1],2hbx[12:1]/5hbx[12:1],2hbx[12:1]/5hbx[12:1],{4}3bx,4bx,2bx,5bx,{2}1bx,1,8,8,1/7,{8}1x,2x,3x,4x,{2}1x/5x,4x/8x,3x/7x,2x/6xqq1b[2:3],{1},,
{4}2b,1,2,1,3,8,3,8,4b,7,4,7,5b,6,5,6,3b,4,3,4,2,5,2,5,{2}1b/6,2/7,3/8b,,{4}7b,5,6,5,7,,1x/8,,2b,4,3,4,2,,5/6x,,4b,3,2,1,7,6,5,4,8b,1-5[1:1],2,3,{1},{4}7b,8,6,1,7,8,5,2,7b,8,6-4pp5b[4:3],1,{1},{4}2b/1,,3,8,3,8,2,1,2,1,3-5v6b[4:3],,{1},{4}7x/8x,,6,5,7,4,8x,,1x/2x,,3,4,2,5,1x,,{8}2x,3x,4x,5x,1hx[4:1],,,,7x,6x,5x,4x,{2}8hx[4:1],
{1},,{4}1bx,5bx,1bx,5bx,1bx,5bx,1bx,5bx,1bx,5bx,1bx,5bx,1bx,5bx,1bx,5bx,1bx,5bx,1bx,5bx,1bx,5bx,1bx,5bx,{2}1bx,2bx/6bx,3bx/7bx,4bx/8bx,{4}1bx,5bx,1bx,5bx,1bx,5bx,1bx,5bx,1bx,5bx,1bx,5bx,1bx,5bx,1bx,5bx,{2}1bx,3bx/7bx,{6}1,2,8,3h[4:1],,,1,2,8,3h[4:1],,,1,2,8,3h[4:1],,,6bqq1b[2:3],
