&title=教室の中できみはひとり
&artist=あいうち
&first=3.01
&des=dc-147
&lv_5=13
&inote_5=(135)
{16}5x,4x,3x<5-1<7-3[8:10],,,,,,,,,,,,,,,,,,,,,,,,,,,,,,
3h[4:1],,,5,6x<8[8:1],,4h[8:2],,6-1[8:1],,,,6-2[8:1],,4,,6,,4,,
4w8b[8:1],,,,4b,,,,
2h[8:1],,5,,6h[4:1],,1-5[8:1],,,,1-4[8:1],,,,
1,,5,,6,,7,,18,,2,,3w7b[4:1],,,,,,,,,,
1x,,,6,6,,3,,5h[4:1],,4,,4,,36,,27,,,,1-5[8:1]/8-4[8:1],,,,1b/8b,,,,
2,,3,,45,,4h[4:1],,6,,6p5[8:1],,,,3,,2,,1,,6-1[8:1],,2-5[8:1],,6,,2,,Cf,,,,
1x>4[8:1],,,,1b/7b,,,6,6,,45,,2h[4:1],,4-6[8:1],,4,,3x,,3x,,7,,5-1b[8:1],,
B6/B4,,5,,,,3p7[8:1],,7p3[8:1],,3,,,,,,,
8qq6[8:1]*pp2[8:1],8,,,,,,,5,5<8[8:1],,2>4b[8:1],,5,,2,,Ch[4:1],,,,,,,,
2/6h[4:1],,,3,3,,4-2[8:1],,4,,5,,5,,3-8[8:1],,8-4[8:1],,6-2[8:1],,7,,6,,4hx[8:1],,,,
35,,3h[8:1]/5h[8:1],,,,,4,6,,,7,7h[4:1]/5h[4:1],,,,,,,,
E1,,E8,,E7,,E6,,E5,,E2/B1,,E3/B3,,,,E5,,,,
2,,3,,4,,5-2[8:1]/6<8[8:1],,56,,,,,,1x-4[8:1],,7,,6,,5,,5,,4,5,3,6,
27,,5,,4,,2z6[8:1],,1x,,8x,,7x,,,,,,
2,,4,,3,,5,,4,,6,,57,,
4x>2[8:1],,,,,,6xp1[8:1],,,,,,3xq8[8:1],,,,,,7xq4[8:1],,,,,,1xq5[8:1],,,,
7xz3>3b[1:1],,,,7,,,,,,,,,,,,,,,,1,,2,,36,,45,,B2,,B7,,C,,,,
3h[4:1],,,,5,,6,,6h[4:1],,4,,2V46[8:1],,,,2,,,,6V82[8:1],,,,6,,,,
3h[16:3],,,7,6,,4h[8:1],,5,,5,,,,1-5[8:1],,28,,1,,
8,,4h[16:1],,7,,3h[16:1],,6,,2h[16:1],,5b,,,,
4,,,7,7,,8-5[8:1],,2,,8,,2-4[8:1],,1,,2/8-6[8:1],,,,8/1-5b[8:1],,,,1,,,,
6h[4:1],,,5,4,,3-1-4[8:1],,3,,35,,,,
6,,4,,5,3,5,,3,,4,,2,4,,,2,,1<1b[1:1],,,,
1,,2,,3,,4,,,,C,,B5/B4,,
7x,6x,5x,,3,,4,,6,4,5,,3h[4:1],,B7,,B6,,E6,,,,5-1b[8:1],,,,,,,,
2h[4:1],,,6,7,,8,,1b-6[16:1]/2b-5b[16:1],,1b/2b,,,,,,
8xw4[8:1]b,,,,8b,,,2x,4x,,35,,6h[4:1],,2>4[8:1],,2,,7x,,6x,,5,,4-8b[8:1],,
B5/B3,,4x/5x,,,,6p2[8:1],,2p6[8:1],,6,,,,,,,
1qq7[8:1]*pp3[8:1],1,,,,,,,2,2>5b[8:1],,6<8[8:1],,2,,6,,Ch[4:1],,,,,,,,
2/6h[4:1],,,3,3,,4-2[8:1],,4,,5,,5,,3-8[8:1],,8-4[8:1],,6-2[8:1],,7,,6,,4hx[8:1],,,,
35,,3h[8:1]/5h[8:1],,,,,4,6,,,7,7h[4:1]/5h[4:1],,,,,,,,
E1,,,,E7,,,,E5,,E2/B1,,E3/B3,,,,
C/1x,,2,,3,,4,5,6,,5,,4,,3h[4:1],,4,,5,,
6h[4:1],,5,,4,,3,,3,,4,,4,,5,,
6h[4:1],,4h[4:1],,,,5,,3h[4:1],,4,,5,,6,,7-3[8:1],,,,7b,,,,
1,,,7,2-4[8:1],,8,,27,,1,,6-8[8:1],,2,,36,,4,,45,,4,,4/5<7[8:1],,4,,45,,,,
2-6[8:1],,,6,2,,5h[8:1],,4,,4,,
3v5[8:1]/7v5[8:1],,28,,37,,,,4x/6x,,5V71[8:1],,4,,3,,2,,,,
8,,,2,1v3[8:1],,7,,18,,6,,6>4[8:1],,2,,36,,3,,
45,,45,,3-7[8:1]/6-2[8:1],,45,,36,,,,
8h[4:1],,,4,4,,3,,5,,46,,2,,5,,2,,5,,3,,7,,3-7[8:1],,7,,3b,,,,
{32}1x,2x,3x,4x,5x,6x,7x,8x,1x,,,,
{16}7,,2h[2:1],,6,,6,,5,,5,,4-7[8:1],,4,,34,,2,,7,,3b/6b,,,,
1-4[8:1],,,8,1,,7-3[8:1],,7-5[8:1],,,,,,,,4-7[8:1],,6,,54,,5,,2-6[8:1],,3,,26,,,,
5h[1:3],,,,4x,,4x,,4x,,4x,,4x,,,,4x,,,,4x,,,,,,,,4x,,,,,,,,4x>1[1:1],,
,,,,,,,,,,,,,,,,,,,,,,,,,,,,,,,,,,,,,,,,,,
{48}2x-4[16:1]/7x-5[16:1],1bx/8bx,,,,,,,,,,,
{16}2b/7b,,,3h[16:3],5,,6-2[8:1],,5,,46,,3-1[8:1],,4x-6[8:1],,3,,4,,E1,,C,,E5,,,,
8-6[8:1],,8-5[8:1],,8,,,2b,2b,,,4,4-6[8:1]*-2[8:1],,,4,4,,,
1,8-6b[8:1]/2,,,,1-5[8:1]/8,,,,1/2-4b[8:1],,,,,,,,
7h[16:6],,,2,3,,4,,5,,6V82b[8:1],,2V46b[8:1],,,,,,E1,,E2,,E3,,E4,,,,
35,,46,,7-3[8:1],,,,8-4[8:1]/7,,,,1-5[8:1]/8,,,,2-6[8:1]/1,,,,8h[8:1],,,,7h[16:1],,,,
6,,3,5,4b,,,,
B2/B3/E3f,,,,E7/B7/B6f,,,,2h[8:1],,5h[8:1],,4h[8:1],,
8-5-8[4:1],,4-1-4b[4:1],,,,,,,,,,,,
7,,6,,5,,4,,3,,2,,1,,8,,7,,6-8[8:1],,5,,4,,3<5[8:1],,2,,83,,,,,,,,
2h[16:6],,,5,6,,7<4[8:1],,4,,3,,2,,1-4[8:1],1x,8x,,1x,,
7h[4:1],,E1/B1,,E3/B3,,,,E5/B4/B5,,,,
3h[8:1]/5h[8:1],,,,4h[8:1]/6h[8:1],,,,3h[8:1]/5h[8:1],,,,
6,,,,7,,,,8qq8[8:1],,,,1,,2,,4qq4[8:1],,,,4b/5b,,,,,,
3h[2:1]/6h[2:1],,,,,,,,,,2h[4:1]/4h[4:1],,,,,,3h[2:1]/5h[2:1],,,,,,,,,,
4b/6h[4:1],,,,,,3h[2:1]/7b,,,,,,,,,,8h[4:1]/1b,,,,,,2b/7b,,,,
3,,4,,5,,6,,,,4h[8:1]/5h[8:1],,,,36,,27,,18,,2,3,4,,5<5[2:1],,4,,54,,,,,,,,,,
2h[2:1],,,,,,,,7b,
