&title=Donnerschnee
&artist=void (Mournfinale)
&first=0
&des_5=xuyu
&lv_5=13+
&des=xuyu
&inote_5=(148)
{8},,,,,,,,
3-1-6-8-3[2:5]/5h[4:1],,,,5h[4:1],,,,4h[4:1],,,,4h[4:1],,,,5h[4:1],,,,5,,5,5-8[8:1],,3/5,,2h[4:1],,6h[4:1],,,2-4[8:1],2,5-1[8:1],5,,,8-6[8:1],8,5-1[8:1],5,,,2-5[8:1],6-1[8:1],2-7-1-5[2:1],6,B2h[2:1],,,,,,
{16}3,5,3,5,2h[2:1],,,,,,,,,,
{8}6h[8:1],5h[8:1],4h[8:1],3h[8:3],,,6-8[8:1],,,
{16}5x,4x,3x,2x,1x-4[4:1],,,,4-7[4:1],,,,7-2-4-1[2:1],,,,5,,,,5h[4:1],,,,,,7h[4:1],,,,,,
{8}5h[8:1],4h[8:1],3h[8:2],,6-1[4:1],,1-4[4:1],,4-7-1-5[2:1],,2h[8:3],,,,,,
{16}3,3,5,5,2-5[4:1],,,,5-8[4:1],,,,8-3-5-2[2:1],,,,6,,,,6h[8:3],,,,,,1-4[8:1],,,,,,
6h[8:3],,,,,,4-1[8:1],,,,,,,,
{8}5h[8:1],2h[8:1],6h[8:1],3,3,42,4-8-5[4:1]/2,,,3,3,24,2v4[4:1]/4,,,6,6,57,5-1-4[4:1]/7,,,6,6,75,7v5[4:1]/5,,,3,3,4-7-5[4:1]/2,4/2,,,,,
{16}3,4,3,4,2v4[8:1],,2,,,,,,6,5,6,5,7v5[8:1],,7,,,,,,3,6,3,6,2,,2,,
4,5,3,6,2,7,1,8,1,8,2,7,3,6,4,5,4,4,6,6,3,3,5,5,2,2,4,4,1,1,5,5,
3,6,2,,3,5,2,2,E6,,2b,8,3,7,2,8,1,,4,6,3,5,4,6,4,,3,5,4,6,4,,
6,3,7,,6,4,7,7,E4,,7b,1,6,2,7,1,8,,8,2,7,1,8,2,8,,6,4,5,3,5,,
3,6,2,,2,8,3,3,E7/B7,,2,8,3,7,2,8,1,,4,45,,,3,,3,5,4,6,4,7,1,8,
2,5,3,6,4,5,3,4,2,,,,
7,4,6,3,5,4,6,5,7,,2h[16:1],,2h[16:1]/5h[8:1],,,3h[8:1]/6h[16:1],,,,,
3,4,2,2,6,5,7,7,,,3,4,2,5,3,7,3,5,5,3bh[16:1],,,,,
{16}3,5,4,6,3,5,3,,
2,2,4,3,7,7,5,6,,,3,4,2,5,3,6,3,5,5,3bh[16:1],,,,,
{16}3,5,4,6,3,5,3,,
3b,4,2,5,1,6,,4b,6,3,7,2,,3b,5,2,6,1,1,5,,
3,5,4,6,3,5,4,6,3,5,2,
7h[16:1],,7h[16:1]/4h[8:1],,,6h[8:1]/3h[16:1],,,7h[16:1]/4-1[8:1],,,,,,,,
2h[16:1],,2h[16:1]/5h[8:1],,,3h[8:1]/6h[16:1],,,2h[16:1]/5-8[8:1],,,,,,,,
,,8-4[8:1],,3,,8,,,,3-8[8:1],5,3,5,3,,,,7h[4:1],,,,3-1-4[4:1],,3,,,,6,,5h[8:3],,,,,,3-8[8:1],,2,,,,E8,B7,B6,E6,E5h[8:1],,,,2h[4:1],,,,6-8-5[4:1],,6,,,,3-8[8:1],,3,,,,7-3[8:1],,1,,27,,,,2h[4:1],,,,3h[4:1],,,,4h[4:1],,,,5,6,7qq4[8:3],,,,3-8[8:1],,3,,,,,,6,,6h[4:1],,,,,,4-1[8:1],,4,,,,7-3[8:1],,,,78,,8-3-7-1[2:1],,,,,,,,,,6,,5,,5<7[8:1],,,,1,2,3,4,E8h[8:1],,,,
3h[4:1],,,,6-8-5[4:1],,6,,,,3,,4h[8:3],,,,,,6-1[8:1],,7,,,,E2,B2,B3,E4,E5h[8:1],,,,7h[4:1],,,,3-1-4[4:1],,3,,,,6-1[8:1],,6,,,,2-6[8:1],,8,,72,,,,7h[4:1],,,,6h[4:1],,,,5h[4:1],,,,4,3,2pp5[8:3],,,,6-1[8:1],,6,,,,,,3,,3h[8:3],,,,,,5-8[8:1],,,,5,,2-6[8:1],,,,21,,1-6-2-8[2:1],,,,,,,,E4h[4:1],,,,,,,,B3h[4:1],,,,B6,,,,B2h[4:1],,,,B7,,,,E2h[4:1],,,,E8,,,,
E6h[4:1],,,,E4,,,,B6h[4:1],,,,B3,,,,B7h[4:1],,,,B2,,,,E8h[4:1],,,,E2,,,,
{8}3-1-6-8-3[2:4]b/5h[4:1],,,,5h[4:1],,,,4h[4:1],,,,4h[4:1],,,,,,5h[8:1],,4h[8:1]/6h[8:1],,3h[8:1]/7h[8:1],,2h[8:1]/8h[8:1],,1h[8:1],,8<5[8:1]b,,{32}A4f,D4,A3,D3,A2,,,,
{16}1h[8:1],,5,2h[8:1],,6,3h[8:1],,7,,4,5,3,6,2,,3v8[8:1]/5,,1,,35,,,,1,7,3,5,1,7,3,5,
{16}4h[8:1],,8,3h[8:1],,7,2h[8:1],,6,,1,8,2,7,3,,2v5[8:1]/8,,4,,28,,,,4,6,4,6,4,8,5,7,
{16}4h[8:1],,8,3h[8:1],,7,2,,1,8,2,7,
{16}1h[8:1],,5,2h[8:1],,6,3,,4,5,3,6,{16}1h[8:1],,5,2h[8:1],,6,3,,4,5,3,6x,1,8,2,7,3,4,2,5,2x,1,3,8,
2,5,3,6,4x,7,5h[8:1],,7,4,6,3,5x,2,4h[8:1],,
{16}1h[8:1],,5,2h[8:1],,6,3h[8:1],,7,,4,5,3,6,2,,3v8[8:1]/5,,1,,35,,,,1,7,3,5,1,7,3,5,
{16}4h[8:1],,8,3h[8:1],,7,2h[8:1],,6,,1,8,2,7,3,,2,5,3,6x,1,8,2,7,3,4,2,5,2x,8,3,7,4x/6x,46,,24,2v4[8:1]/4,,7,,2,,,,
5x/3x,53,,75,7-4[8:1]/5,,2,,7,,,,3,5,3,5,4,7,4,7,3x/5x,35,,24,2v4[8:1]b/4,,7,,2,,,,
5x/3x,53,,75,7-4[8:1]b/5,,2,,7-1-5-8[4:1],,,,,,,,,,,,
{16}1h[8:1],,5,2h[8:1],,6,3h[8:1],,7,,4,5,3,6,2,,3v8[8:1]/5,,1,,35,,,,1,7,3,5,1,7,3,5,
{16}4h[8:1],,8,3h[8:1],,7,2h[8:1],,6,,1,8,2,7,3,,2v5[8:1]/8,,4,,28,,,,4,6,4,6,4,8,5,7,{16}4h[8:1],,8,3h[8:1],,7,2,,1,8,2,7,
{16}1h[8:1],,5,2h[8:1],,6,3,,4,5,3,6,{16}1h[8:1],,5,2h[8:1],,6,3,,
24,24,,1,1,,5-2[8:1]/7,57,,,,,
{24}6,7,8,1,8,7,6,5,4,3,2,1,8/3x,,,3,,,3,2,1,7,6,5,3,2,1,7,6,5,4/1b-5-3-8-4[2:3],,,,,,,,,,,,,,,,,,,,,,,,,,,,,,,,,,,,6,,,,,,6,,,,,,6-2-8-5-1[2:3]b,,,,,,,,,,,,,,,,,,,,,,,,3,,,,,,3,,,,,,3,,,,,,3,,,,,,3-7-5-2-6[2:3],,,,,,,,,,,,,,,,,,,,,,,,,,,,,,,,,,,,,,,,,,,,,,,,
{16}E4/E8,B3/B7,B2h[8:15]/B6h[8:7],E
