&title=XODUS
&artist=DJ Myosuke/Gram
&first=0.05
&des=Worthless
&lv_5=14+
&des_5=Worthless
&inote_5=
(202){4},{8},,,,,,,,,,,,,,4h[8:1]/2h[8:1],
,,1h[8:1]/8h[8:1],,,7/5,{16}6,5,
{4}6,{16}6,7,{8}8h[8:1],{16}4,3,{8}2,{4}1/8,
{16}1h[16:1]/2h[16:1],,,2h[16:1]/1h[16:1],,,{8}7h[16:1]/8h[16:1],{16},8h[16:1]/7h[16:1],,,{8}B1/E2/E1,{16}B6,B3,
{4}C,6xh[24:1]/3xh[24:1],{16}4,5,3,6,4,5,3,6,
2h[8:3],,,5,,,{8}5,{16},4h[16:3],,,{8}3,2/5,
{16}6,6,{8}1h[8:1],{16}7,6,{8}5h[8:1],{16}2,3,{8}4h[8:1],{16}8,7,{8}6h[8:1],
{16}4b,3,2,1,8,7,6,5,8b,7,6,5,4,3,2,1,
{4}8/4-1[8:1]*-7[8:1],{16},,,,,,,,8,8,8,8,
{4}8-5[16:1],8/2-6[16:1],2/4-7[16:1],4/8-3[16:1],
{8}8,6,6-1[16:1],2,{4}2-5[16:1],{8}2/8,8,
{4}1/7<4[16:1],7v2[16:1]/3-6[16:1],7/3,B8/A8/E1/A1/B1/A5/D5/A4,
{8}3/5,3/5,{4}B5/B2/E3/E5,{8}6/1,6/1,{4}5/8h[8:3],
{8}6,6,7,7h[4:1],1,1,8h[2:1],2,
2,3,3,7,{16}7,4,{8}6,{16}3,4,{8}2,
{16}7,8,7,8,7,8,7,8,7b,6,5,4,3,2,1,8,
{8}3/7,7/3,,B3/B8,{4}B7/B4,2/6,
{1}3h[4:3]/7h[4:3],
{16}2b,6,2,6,2,6,2,6,3b,7,3,7,{4}3,
{8}4/6,7,3/8h[8:1],2,1/7,6,5/2,2,
3/4,3/4,5/1,5/1,{16}2,4,2,4,{4}3-8[16:1],
3<6[16:1],{8}3,1,{4}1-6[8:1],2h[8:1],
{8}5/3,2,4/2,5,3/5h[8:1],2,{16}2/4,5,6,7,
{8}1bx/8bx,6bx/2bx,{4}5bx/4bxh[4:1],{32}B7,B6,{16}B5,,,3,4,3,4,
{4}2-5[16:1],2/6,7-4[16:1],7/1,
3/2,{8}3/4,4/5,{4}6/5,5/6h[8:1],
{16}8,6,8,6,1,7,1,7,{8}2/6,5/3,{4}5/3,
{1}2<4[4:3]/4<2[4:3],
{4},,,8,
8h[8:1],{8}1/7,7/1,6/2,2/6,{16}3,4,2,4,
{8}3,5,{16}4,6,3,6,{8}4,7b,{16}5,6,4,6,
5,7,1,8,2,7,3,6,4,5,4,5,3,6,4,5,
{1}4w8b[4:1],
{16}7/8,,,6/7,,,{8}5/6,{16}3,4,{8}1,{16}5,4,{8}6,
{16}7/3,,,7/3,,,{8}2/8,{4}8/2,{16}7,6,{8}5,
{16}1b,2,3,4,8b,7,6,5,2b,3,4,5,6,7,8,1,
2/6,5,4,3,2,1,8,7,{8}6/4,3,5/3,5,
{16}4/2h[16:3],,,3,,,{8}1/2,{4}3/8h[4:1],2,
{16}1,8,1,8,1,7,1,7,1,6,1,6,1,2,3,4,
8b,7,6,5,7b,6,5,4,6b,5,4,3,2,1,8,7,
{8}6/4-8[16:1],6,{16},7-3[16:1],,,{2}1-5[16:1],
{16}7/4,,,3/6,,,{8}5/2,{16}4,3,{8}4,1,2/8,
{16}5/6,,,4/5,,,{8}4/3,{4}4/3,{16}5,4,{8}7,
{16}3,4,{8}1,{16}6,5,{8}7,{16}3,4,{8}1,{16}7,8,{8}7,
{16}2,1,2,1,3,1,2,1,4,1,2,1,3,1,{8}2,
4/8,8/4,2/6,2/6,3<6[16:1],3,8-4[16:1],8,
2-5[16:1],2,6,6,{16}4,7,4,7,3,8,{8}2,
2/1xh[16:3],3x,{16},4h[16:3],,,{8}7,6,5/3,2,
{4}1-7-3-5v2[2:1],6h[2:1],,,8/4h[4:1],
{8}7,{16}5b,5,{4}6h[4:1],{8}4b,3/5h[4:1],
,1,,2/6h[4:1],2,{16}3,4,{8}7/5h[4:1],7,
{4}8h[4:1],{8}2b,2,1/3,8,{16}7,5,{8}6,
4,4,5/3,3h[4:1],{16}B4,B5,{8}B6,{16}E3,B2,{8}B1,
{4}6/8xh[4:1],{8}7,{16}8,8,{4}6h[8:1],{8}7/5,7/5h[4:1],
,6,,3b/4,5/2,{16}3,4,{4}5/7h[4:1],
{8}8,6/1,6/1,5/2>5[16:1],,6,7,8<5[16:1],
,4/8,3,2,1/5,8/4,{4}3-6[16:1]/7v2b[16:1],
{1}Cf/3V51>4[2:3]/7V51<6[2:3],
{8},,,,,,,,B4,
D7,B5,Ch[8:11],,B2,B3,B4,
,E2,D3,D4,,,,,{2}1bh,
2bh,
3bh,4bh,
5bh,6bh,
7bh,8bh,
{8}7-4[16:1],7,{4}7/1,{8}2-5[16:1],2,{4}2/8,
{8}7-4[16:1],7,1-5[16:1],1,8-6[16:1],8,2-4[16:1],2,
1,1,1,1,2/8,8/2,7/3,7/3,
{16}4,6,3,8,2,7,3,6,4,7,{8}3,{4}2/6b,
6b-1[16:1],6/2-5[16:1],2/8-4[16:1],8/3-1[16:1],
3b/6-2[16:1],6/8-4[16:1],8/7b,{8}5/3,5/3,
2,1/7,{4}6h[8:1]/5h[8:1],4h[8:1]/3h[8:1],{16}3,5,{8}1,
,2,2,1/3h[4:1],{16},,8,7,6h[8:1],3,2,1,
{4}8h[4:1],4-7[16:1],4/2-4[16:1],{8}1,1<6[16:1],
,5/1,4,3<6[16:1],{16},,7/3,8,1,2,3,4,
{8}5/2,1,3/4,4h[8:1]/3h[8:1],,1/8,8/1,5/7q8[16:7],
,,{4}2-4[16:1],2,A1/E1/A8/B1/B8/B4/E5/B5/A5/A4,
{2}3h[1:1]/7h[4:1],{4}7,7,
{8}7,6,{4}3/5<8[16:1],2,{16}1,2,3,4,
{8}5bx/6bx,8bx/1bx,{4}4bx/3bx,{8}2b/7b,3,{16}6,5,{8}8h[8:1],
,7/5,8/1,5/2,{16},,3,4,2,5,1,6,
{4}8h[8:1],{8}7bx/1bx,6bx/2bx,{4}5bx/3bx,{8}4bx/6bx,5bx/3bx,
,1bx/2bx,2bx/1bx,8bx/3bx,{16},,7,4,6,5,7,4,
{8}8,7/1,6/5,4/2,,1/8,8/1,1h[8:7]/8h[8:9],
,,,,,,,,{4}2h[4:1],
7h[4:1],3h[4:1],{8}6,6h[4:1],
4,4,4,4,4-8V62[1:1],4,{4}4h[4:5],
,,,,,6h[2:1],
,B2/B3/E3,
{8}8b/7b,8b/7b,{4}8bh[8:1]/7bh[8:1],{8}2b/1b,1b/2b,{16},8b/3b,,,2b/6b,
5,{8}4,{16}1b,2,{8}3/5b,,4b/6b,{16}7b,8b,7b,8b,
{8}7b,6b/1b,{4}4b/2b,{8}2b/7b,4bh[16:1]/5bh[16:1],{16},3bh[16:1]/4bh[16:1],,,{4}2bh[8:1]/3bh[8:1],
{8}2b/8b,7b/1b,{16},,6b,5b,{4}8b,
{8}4b/3b,1b/8b,{4}5b/6b,{8}7b/4b,3b/6b,{16},4b/3b,,,{4}5b/2b,
{8}1b/8b,1b/8b,,7b/2b,{16}3b,5b,2b,5b,
{8}3b,4b,{4}4bh[8:1],{8}5b/3b,6b/2b,{16},1b/7b,,,{1}8b-4-2-6[16:9],
{24}3,5,4,5,4,5,{12}4,6,3,{8}3,6/4h[8:1],6,7/3,
1/7h[2:1],,,2,{24},,,3,6,3,{8}6,4/5,
{24}2,4,3,4,3,4,,,{12}5,2,{8}2,4/3,1/2,6/4,
{4}7/8,{8}5/6,2/8,{16},,7/1,7/1,{48},,,,,,,,,,,,{24}1,
4,2,4,2,4,{12}2b,5,3,{8}3,{24}5,4,5,{12}4b,6,6,
{4}4,{8}6/4,{24}5,7,5,{12}7b,4,4,6,{24},{8}7,
{24}8,1,8,1,8,1,{12}8b,2,7,{8}3,{24}4,6b,4,6,4,6,4,6,4,
{1}5-1v7-3[4:3],
E
