&title=Sphalerite
&artist=CS4W/RYOQUCHA
&first=0.02
&des=K.rySTAL
&lv_4=13
&lv_5=14+
&inote_4=(230)
{1},,
{1}Ch[1:1],1>8[4:27],,1h[2:1],2h[2:1],3pp1[4:5],,1>4b[4:3],,
{4}7,6,5,4,6,5,4,3,5,4,3,2,4,3,2,1,
{4}4h[8:1]/2h[8:1],4h[8:1]/2h[8:1],5h[8:1]/3h[8:1],5h[8:1]/3h[8:1],6h[8:1]/4h[8:1],6h[8:1]/4h[8:1],7h[8:1]/5h[8:1],7h[8:1]/5h[8:1],
{4}8h[8:1],1h[8:1]/2h[8:1],3h[8:1]/4h[8:1],5h[8:1]/6h[8:1],7h[8:1]/1h[8:1],2h[8:1]/4h[8:1],5h[8:1]/7h[8:1],8h[8:1]/2h[8:1],
{1}8h[4:7]/2-6z2[2:3],,
{4}1,2h[8:1]/4h[8:1],3h[8:1]/5h[8:1],4h[8:1]/6h[8:1],
{4}5h[8:1]/7h[8:1],5h[8:1]/7h[8:1],5x-1[8:1]/7x,,
{8}8h[4:1],,,7h[8:3]/1h[8:3],,,,,
{8}3h[4:1],,,2h[8:3]/4h[8:3],,,,,
{8}E7/B7,,,B3/E3,,,E5/B5,,
{8},E1/B1,,,Ch[2:1],,,,
{8}1h[4:1],,,2h[8:3]/8h[8:3],,,,,
{8}6h[4:1],,,7h[8:3]/5h[8:3],,,,,
{8}B1/E2/A2/B2,,,B5/E6/A6/B6,,,B3/E4/A4/B4,,
{8},B7/E8/A8/B8,,,Ch[2:1],,,,
{4}8,8,7/1,7/1,2/3,2/3,4/6,4/6,
{4}7/8,7/8,3/1,3/1,4/5,5s1[4:1]/4z8[4:1],,,
{8}7,7,7/2,7,7/2,7,7/2,,
{8}1,1,1/6,1,1/6,1,1/6,,
{8}D7,E6,D5,E4,D3,E2,D1,E8,
{4}D7/Ch[4:1],,E3/B2/B3/E7/B6/B7,,
{8}8h[4:1]/1h[4:1],,,,A3h[64:24]/E3h[64:23]/B3h[64:22],,,A5h[64:24]/E5h[64:23]/B5h[64:22],,,A1h[64:24]/E2h[64:23]/B1h[64:22],,,A7h[64:24]/E8h[64:23]/B7h[64:22],,,
{1}5-1-3-8-6-2[4:5],,7-3-5-2-8-6[4:5]/2h[2:3],,2-6-3-7-5-2[4:5]/6h[2:3],,
{8}7,,7h[4:1]/8h[4:1],,,7h[4:1]/6h[4:1],,,7h[4:1]/5h[4:1],,,7h[4:1]/4h[4:1],,,7/3,,
{1}7-4-6-1-3-8-4[4:5]/3h[2:3],,1-7-4-2-7-5-1[4:5]/5h[2:3],,6-1-4-7-2-5-8[4:5]/2h[2:3],,
{8}2,,2h[4:1]/1h[4:1],,,2h[4:1]/3h[4:1],,,2h[4:1]/4h[4:1],,,2h[4:1]/5h[4:1],,,2/6,,
{16}2x,3x,4x,5x,6x,7x,8x,1x,2x,3x,4x,5x,6x,7x,8x,1x,2x,3x,4x,5x,6x,7x,8x,1x,2x,,,,,,,,
{8}7/1,7/1,7/1,,6,5,6,5,6,5,6,5,6,5,6h[4:1],,
{8}4,3,2/5,,3,4,3,4,3,4,3,4,3,4,3h[4:1],,
{1}5<3[8:5],4<2[8:5],
{8}3x,,2h[4:1]/4h[4:1],,,2h[4:1]/4h[4:1],,,2h[4:1]/1h[4:1],,,2h[4:1]/1h[4:1],,,3/8,,
{8}7-4[8:1],,4,,3,3,2/4,,
{8}2-5[8:1],,5,,6,6,7/5,,
{8}8-4[8:1],,4,,3,3,4/2,,
{8}1-5[8:1],,5,,6,6,7/5,,
{1}4>6[8:5],5>7[8:5],
{8}6x,,7h[4:1]/5h[4:1],,,6h[4:1]/4h[4:1],,,3/5,,2h[4:1],,4h[4:1],,6h[4:1],,
{1}8b-2-4-6-8>8[4:11],,,Cf,
{1}1h[1:0],2h[1:0],3h[1:0],4h[1:0],5h[1:0],6h[1:0],7h[1:0],8h[1:0],
{8}3h[4:3],,,4,,,5,,4/6,,,,,,6/5,,
{8}6h[4:3],,,5,,,4,,3<6[2:1]/5,,,,,,,,
{4}8h[8:1]/1h[8:1],8h[8:1]/1h[8:1],1h[8:1]/2h[8:1],1h[8:1]/2h[8:1],2h[8:1]/3h[8:1],2h[8:1]/3h[8:1],3h[8:1]/4h[8:1],3h[8:1]/4h[8:1],
{16}5x/4x,6x,7x,8x,1x,2x,3x,4x,5x,6x,7x,8x,1x,2x,3x,4x,5x,6x,7x,8x,1x,2x,3x,4x,5x/Cf,,,,,,,,
{4}7h[4:1]/3h[4:1],,2/6,1V36[2:1]/5V72[2:1],,,,,
{4}8h[4:1]/4h[4:1],,7/3,2V83[2:1]/6V47[2:1],,,,,
{8}8h[4:1],,,7h[8:3]/1,,,2,,
{8}3h[4:1]/4h[4:1],,,2h[8:3]/5,,,6,,
{8}6h[4:1]/5h[4:1],,,7h[8:3]/4,,,3,,
{8}2h[4:1]/1h[4:1],,,3h[8:3]/8,,,7,,
{4}6/5,6/5,4/5,4/5,
{4}4/3,4/3,2/5,2/5,
{4}3/6,3/6,4/7,4/7,
{4}6/5,6/5,7/8,1b/6b,
{8}2x,2,2,2,4x,4,4,4,5x,5,5,5,7x,7,7,7,
{1}Ch[1:1],
{1}B1/B8,1bs5[4:5]*z5[4:5],
{4},,,3b/7b-4[8:1],
{4}2-5[8:1],6-1[8:1],3-8[8:1],7-4[8:1],2>8[2:1],,,,
{8}2-5[8:1]/4,,6-1[8:1],,3,3,2/4,,
{8}7-4[8:1]/5,,3-8[8:1],,6,6,7/5,,
{8}8/4,8/4,8/4,,7/3,7/3,7/3,,
{8}4/5,,1/8,,6xb-1-6b[2:1]/2xb-5-2b[2:1],6xb/2xb,,,
{8},,,,2,2,4,3,
{4}2-5[8:1]/4,7-4[8:1],1-5[8:1],8,
{8}7,7,4,6,1,1,5,2,
{16}3x/4x,,,2x/5x,,,6x/4x,,
{8}7xh[4:1]/8x,,1,,
{16}2xb/6xb,,2xb/6xb,,3,4,3,,6,5,6,,7,,,,
{16}7xb/3xb,,7xb/3xb,,6,5,6,,3,4,3,,2,,,,
{8}2,2,7,7,1,1,8,8,
{16}2x,1x,2x,1x,2x,,,,7x,8x,7x,8x,7x,,,,
{16}6x/4x,,,3x/5x,,,7x/4x,,,2x/5x,,,1x/8x,,1x/8x,,
{4}3b,2b,1bw5[8:1],,
{8}2/8,2/8,2/8,,2,4,3,4,2,4,3,4,2,4,3h[4:1],,
{8}5,6,7/4,,7,5,6,5,7,5,6,5,7,5,6h[4:1],,
{4}1>3-5<7[8:5],,C,,8-3-6[8:5],,C,,
{8}1,,2h[4:1]/8h[4:1],,,2h[4:1]/8h[4:1],,,1h[4:1]/3h[4:1],,,1h[4:1]/3h[4:1],,,8/4,,
{8}7-4[8:1],,2-5[8:1],,6,7,8/4,,
{8}3-8[8:1],,7-4[8:1],,1,2,3/6,,
{8}6-1[8:1],,3-8[8:1],,7,6,5/1,,
{8}2-5[8:1],,6-1[8:1],,4,3,2/7,,
{4}8-6>4-2b[8:5],,C,,1<8-6-4>3b[8:5],,C,,
{8}8,,7h[4:1]/1h[4:1],,,6h[4:1]/2h[4:1],,,3/5h[4:1],,6h[4:1],,7h[4:1],,8h[4:1],,
{1}1-5[4:15],,,,C,
E
&inote_5=(230){1},
{1},
{32}1b,2/8-5-8[48:23],3/7,4h[32:13]/6,5,,,,,,,,,,,,,,,,,,,,,,,,,,,,
{1}7xs3>8-6>4[8:19]/A4f/A5/E5/B4h[4:6]/B5/A3/B3/E4,
{1},
{1}E2h[1:1],
{8}E6h[4:3],,,,,,E4,B7,
{1}2>1[4:7],
{1},
{1}E5h[1:1],
{2}E1h[2:1],C,
{4}7V13[1:1],5,5,5,
{4}4,4,4,4,
{4}3V17>2[1:1]/5,5,5,5,
{4}6,6,6,6,
{8}3,3,5,5,4,4,6,6,
{8}3,3,7,7,1,1,5,5,
{16}2,3,4,5,6,7,8,1,5,4,3,2,1,8,7,6,
{16}4,5,6,7,8,1,2,3,7,6,5,4,3,2,1,8,
{1}7b>2V46>5-8[4:5]/E5f/B5/B4/B3/B6/Ch[2:1],
{1},
{16}1/8,,,,2,4,2,4,3,5,3,5,4,6,4,6,
{16}3,7,3,7,2,8,2,8,1b,,,,2b/8b,,,,
{32}3xh[8:3]/7x,6x,5x,4xh[32:12],,,,,,,,,,2x,1x,8x,,,,,,,,,1b/7b,,,,,,,,
{32}6xh[8:3]/2x,3x,4x,5xh[32:12],,,,,,,,,,7x,8x,1x,,,,,,,,,B2/B3/E3f,,,,,,,,
{32}7x,6x,5x,4x,,,,,,,,,7x,6x,5x,4x,,,,,,,,,8x,7x,6x,5x,,,,,
{32},,,,8xz4[16:5],7x,6x,5x,,,,,,,,,,,,,,,,,,,,,,,,,
{32}1xh[8:3]/2x,3,4,5h[32:12],,,,,,,,,,8,7,6,,,,,,,,,2b/4b,,,,,,,,
{32}8xh[8:3]/7x,6,5,4h[32:12],,,,,,,,,,1,2,3,,,,,,,,,7b/5b,,,,,,,,
{32}2/8h[4:3],3,4,5h[32:9],,,,,,,,,,4,3,2,1h[4:3],,,,,,,,,7,6,5,4h[4:1],,,,
{32},,,,,5,6,7,8,,,,,,,,E7/B7/Cf/B3/E3,,,,,,,,,,,,,,,,
{4}1h[8:1]/8h[8:1],1h[8:1]/2h[8:1],3h[8:1]/4h[8:1],2h[8:1]/5h[8:1],
{8}4h[8:1]/6h[8:1],,7h[8:1]/5h[8:1],,6h[8:1]/5h[8:1],,7/4,7,
{4}7h[8:1]/4h[8:1],5h[8:1]/6h[8:1],7h[8:1]/8h[8:1],1h[8:1]/8h[8:1],
{4}7h[8:1]/5h[8:1],2h[8:1]/4h[8:1],5-8[8:1]/1-4[8:1],,
{16}7,,7,,5,,5,,4,,4,,2,1,2,1,
{16}3,,3,,4,,4,,1,,1,,7,8,7h[8:1],,
{16}1,2,3,4,7,8,1,2,5,6,7,8,3,4,5,6,
{1}7s3[8:3]/2z6[8:3],
{32}1xb/8xb,2x/7x,3x/6x,4x/5x,,,,,,,,,,,,,A2/D3,E3,B3/E4,B4,E5h[4:1],,,,,,,,A6/D7,E7,B7/E8,B8,E1h[4:1],,,,,,,,A2/D3,E3,A3,B3/E4,B4,A4,E5h[32:6],,,,,,A6/D7,E7,A7,B7/E8,B8,A8,E1h[32:6],,,,,,
{8}2xbV46[4:1],,6V42[4:1],,1,,8,7,
{8}1/6-4[8:1],,3>5[8:3],,1x,,3,,
{8}2x<7[8:1]*>5[8:1],,,,E7,E3,E1,E5,
{8}A5/D6,A1/D2,A8/D8,A4/D4,
{16}6,5,6,5,7,,,,
{4}7V53[4:1],3V57[4:1],8,2,
{8}1/3V14-8[8:3],,5,6,7,,1>8[16:7]/6,,
{4}4x,,5x-2[8:1]*-1[8:1],,
{16}3/8,,,,5/6,,7/4,,,,3,4,2,,6,,
{4}7V13V17[2:1]/1,E5/B4,6x,4,
{16}5/3h[4:1],,,,4,,2,1,3<6[8:1],,,,8,,,,
{8}7x-3[8:1]/1x,,2-8[8:1],,6x,,6/5,7/4,
{8},E4/B3,B5/E6,E2/B1,E8/B7,,3,,
{4}6/2V86V82[2:1],5,E4/B3,5,
{8}6-1[8:1],,2-5[8:1],,8,,8<1[16:7]/4,,
{4}1,,4-8[8:1]*-7[8:1],,
{16}6/1,,,,4/3,,2/5,,,,6,5,7,,3,,
{16}8,7,6,5,3,2,1,8,4,5,6,7,1,2,3,4,
{16}8,7,6,5,8,1,2,3,8w4[8:1],,,,8b,,,,
{8}1/7,2/6,3/5,,2-4[8:1]/6,5,6,5,
{8}1-7[8:1]/6,5,6,5,3-8[8:1]/6,5,6,5,
{16}1/6,,3,4,2,,,,7-5[8:1]/3,,4,,3,,4,,
{8}8-2[8:1]/3,4,3,4,7-4[8:1]/3,,1,,
{8}2/8,3/7,6-1[8:1]/4,,4V28[4:1],,8x,,
{8}7,6,5-1[8:1],,2>5[8:1],,7,,
{8}6,5,
{8}E4/B3/E3/A3f/7x,,,2x,
{16}E6/E7/B6/A6f,,,,1x/8x,,,,2/7,,6,,5/4,,3,,2/4,,1,,
{16}7h[8:1],,8,,6,,3,4,2h[8:1],,1,,3,,6,5,
{16}7h[8:1],,8,,6,,3,4,1h[8:1],,5,,3-8[8:1]/7-4[8:1],,,,
{8}3/7,,1-5[8:1],6-8[8:1],1,6,4,,
{16}2h[8:1],,1,,3,,6,5,7h[8:1],,8,,6,,3,4,
{8}2h[8:1],,2-5[8:1]/6,,8V64[4:1],,4,,
{8}3,2,1-5[8:1],,6<1[8:1],,3,,
{8}2,1,3x/E8f/A8/D8/A7/E1/E7,,,5x,E3f/A2/D3/A3/E2/E4,,
{4}8x/7x,7h[4:1],5h[4:1],3h[4:1],
{1}1b>8<1[4:14],
{1},
{1}E1,
{1}8xbz4[2:1],
{1}D2/E2,
{1}D3/E3,
{1}D4/E4,
{1}D5/E5,
{1}D6/E6,
{1}D7/E7,
{1}D8/E8,
{1}D1/E1,
{1}8/7h[1:1],
{4}E7/E6,,,2,
{8}1/2h[4:3],,,E4,,,E5,,
{2}1/E6,6/2,
{8}5/7,,4/6,,3/5,,2/4,,
{8}1/5,,2/6,,3/7,,4/8,,
{8}3,3,4,4,5,5,6,6,
{16}4,3,2,1,8,7,6,5,8,1,2,3,4,5,6,7,
{4}8xV64[4:1]/E2f/A1/A2,,3,2qq6[8:5]/B5h[4:1],
{2},4x,
{4}1xV35[4:1]/E8f/A8/A7,,6,7pp3[8:5]/B6h[4:1],
{2},4x,
{16}1xhb[4:1]/2xhb[4:1],,,,,,3b/8b,,,,6,5,6,,4,,
{8}3xhb[4:1]/5xhb[4:1],,,2bz6[4:1]/6b,,,,,
{16}8xhb[4:1]/7xhb[4:1],,,,,,6b/1b,,,,3,4,3,,5,,
{16}6xhb[4:1]/4xhb[4:1],,,,,,7b/5b,,5,4,3,2,8,7,6,5,
{4}4h[8:1]/1h[8:1],2h[8:1]/5h[8:1],6h[8:1]/4h[8:1],7h[8:1]/5h[8:1],
{8}4h[8:1]/6h[8:1],,3h[8:1]/5h[8:1],,3h[8:1]/4h[8:1],,2/6,2,
{4}2h[8:1]/6h[8:1],4h[8:1]/3h[8:1],2h[8:1]/1h[8:1],8h[8:1]/3h[8:1],
{4}6h[8:1]/4h[8:1],7h[8:1]/1h[8:1],2h[8:1]/6h[8:1],3h[8:1]/5h[8:1],
{16}2,,2,,4,,4,,5,,5,,7,8,7,8,
{16}6,,6,,4,,4,,3,,3,,1,8,1,8,
{16}2x,3,4,5,6,7,8,1,
{32}A5,D6,A6,D7,A7,D8,A8,D1,A1,D2,A2,D3,A3,D4,A4,D5,
{1}A5f/Ch[2:1],
{1}5xb-7<6-4z8[4:5]`4xb-2>3-5s1[4:5],
{4},,,2b/7b,
{16}3,4,3,,5/2<7[8:1],,2,,6,,,,6/5,,5/4,,
{8}4<7[8:1]/3,,2q6[8:1],,8,,1/7,6,
{8}3h[4:1]/5,,1-5[8:1],2-4[8:1],1,2,6,,
{8}7/8,,2/5,3,7>2[8:1]/4,,5,,
{16}3,4,2h[8:1],,1,8,7,6,4,3,2,1,5,6,7,8,
{8}1b<6[8:1]/5b>2[8:1],,1b/5b,,1xb/5xb,7xb/3xb,,1h[4:1],
{24},,,,8/2,3/7,
{8}4/6,,2/8,2,3/5,5,
{4}6/4>1[8:1],6p2[8:1],8,1/7,
{16}6,5,6,,7>2[8:1]/4,,7,,3,,,,3/4,,4/5,,
{16}6/5,,7,8,7,,6,,1/5,,1/5,,2/6,,3/7,,
{16}8b/4b,,8b/4b,,7,6,5,4,8,7,6,5,4/8,7/3,2/6,1/5,
{16}8b/4b,,8xb/4xb,,1,2,3,4,8,1,2,3,4/8,1/5,2/6,3/7,
{16}4b/8b-2[8:1],,8,,3-7[8:1],,3,,6-4[8:1],,6,,1,,1,,
{16}1,2,3,4,2,3,4,5,3,4,5,6,4,5,6,7,
{16}1hb[8:1]/8hb[8:1],,,2hb[8:1]/4hb[8:1],,,7hb[8:1]/5hb[8:1],,,1hb[8:1]/8hb[8:1],,,2b/7b,,4b/5b,,
{4}3b-5[8:1],2b-6[8:1],1b-7[8:1],5b,
{8}4/6,7/3,2/8,,8-6[8:1]/3,4,3,4,
{8}1-5[8:1]/3,4,3,4,8-6[8:1]/3,4,3,4,
{16}1/3,,6,5,7,,,,1-3[8:1]/6,,5,,6,,5,,
{8}8-4[8:1]/6,5,6,5,1-3[8:1]/6,,8,,
{8}7/1,6/2,3-8[8:1]/5-3[8:1],,5V71[4:1]/3,,1x,,
{8}2,3,4-8[8:1],,7<4[8:1]/4,,1/7,,
{8}1,2,
{8}3h[8:3]/E8f/B7/B8/A7/A8,,,4,
{16}2/5<8[8:1],,,,3,,,,2x/1x,,3,,5/4,,6,5,7,,3,4,
{16}2h[8:1],,1,,3/8,,6,5,7h[8:1],,8,,6/1,,3,4,
{16}2h[8:1],,1,,3/8,,6,5,8h[8:1],,4,,6-1[8:1]/2-5[8:1],,,,
{8}6/2,,8-4[8:1],3-1[8:1],8,3,5,,
{16}7h[8:1],,8,,6/5,,3,4,2h[8:1],,1,,3/4,,6,5,
{8}7h[8:1],8,5/6-1[8:1],,2-5[8:1]/6,,7-3[8:1]/2,,
{8}1,1,2-5[8:1],,8-4[8:1]/2,,1/8,1,
{8}5,5,6/2>5[8:1],,2/7,8,1<6[8:1],,
{4}1b/5b,
{24}2,1,8,7,6,5,1/4,8,7,6,5,4,8/3,7<4z8[24:83],6,5,4,3,
{1}7b/2b-6-4>1[4:13],
{1},
{1},
{1},
{1}E3/B3/E7/B6,
{1},
{1},
E
