&title=Luminescence
&artist=米虾Fomiki & 初云CLoudie
&first=-0.56
&des=去年写的传一下蹭热度
&lv_5=13+
&inote_1=(184)
{1},,,
{8}E2/E2,,,B4/B4,,,B8/B8,,,E6/E6,
{4},,,C/C,,,,,,,,E6/E6,,,E2/E2,,
,
{8}E8/E8,,C/C,E4/E4,
{1},
{8}E5/E5,,,E2/E2,,,E8/E8,,,,,,,,,E1/E1,
{4},
{8},E4/E4,,,E6/E6,,
{4},B2/B2,
{8}E8/E8,B5/B5,B1/B1,E4/E4,
{4},,,
{8}E7/E7,E3/E3,
{4}
,,
{16}A6/A6,B6/B6,C/C,B2/B2,
{4}A2/A2,
{8},,,36,1-4[10:1]/8-5[10:1],,,,
{8}6/2-5[8:1],,2,,8,1,26,,
{8}5-8[8:1],2-6[8:1],3,2-4[8:1]*-8[8:1],,2,,26,
5,,8/2pp4[8:1],,2,7qq5[8:1],,7,2>5[8:1],,
{16}E1,E8,E7,,,,
{8}E4/E2,E5/E1,E6/E8,
{8}6p1[4:1],,64,,2>4[8:1],5,26,7,
{8}1V35[4:1],,17,,6v8[8:1],1,62,3,
{8}5p7[4:1],,53,,2V41[6:1],5,6/2,8b,
{8},5-8[8:1],3,2-6[8:1]/5b,,2b/7,,,
&inote_5=(184)
{1},5x<4[4:14],,
{8}E2,,,B4,,,B8,,,E6,
{4},,,C/4x>5[4:14],,,,,,,,E6,,,E2,,
,
{8}E8,,C,E4,
{1}1x-3-5-7[4:14],
{8}E5,,,E2,,,E8,,,,,,,,,E1,
{4},
{8},E4,,,E6,,
{4}8-4[4:7],B2,
{8}D8,E6,E2,A3,
{4},,,
{8}E7,E3,
{4}
,,
{16}A6,B6,C,B2,
{4}A2,
{8},,,36,1-4[10:1]/8-5[10:1],,,,
{8}6/2-5[8:1],,2,,8,1,26,,
{8}5-8[8:1],2-6[8:1],3,2-4[8:1]*-8[8:1],,2,,26,
5,,8/2pp4[8:1],,2,7qq5[8:1],,7,2>5[8:1],,
{16}8,7,6,,,,
{8}E1,C,E5,
{8}6p1[4:1],,64,,2>4[8:1],5,26,7,
{8}1V35[4:1],,17,,6v8[8:1],1,62,3,
{8}5<1[4:1],,53,,2V41[6:1],5,6/2,8b,
{8},5-8[8:1],2,3-7[8:1]/5b,,3b/1,,,
{8}3/7-4[8:1],,7,,1,8,73,,
{8}4-1[8:1],7-3[8:1],6,7^5[8:1]*^1[8:1],,7,,73,,
{8}B3/B4,B7/B8,,56,47,38,
{8}1/2h[2:1],,6,7,8h[8:3],,,6h[4:1],,
{8}4-6[8:1],3,2,1,8-2[8:1],7,6,5,4^6[8:1],3,2,1,8^2[8:1],7,6,5,
{8}34,34,12,12,87,87,56,56,
{16}2,4,3,5,4,6,3,7,2,8,1,7,
{8}2xb/6bx>2[4:1],,
{8}2<6[4:1]/6,,5-8[8:1]b,5,,4pp8[8:5],4b,,,,,,,2,
{8}7/3<7[4:1],2,
{8}7>3[4:1]/3,,4-1[8:1]b,4,,5qq1[8:5],5b,,,,,,7,,
{8}2/6V42[4:1],7,
{8}2V86[4:1],,5-8[8:1]b,5,,4pp1[8:5],4b,,,,8,,2,,
{8}7/3V57[4:1],2,
{8}7V13[4:1],,4-1[8:1]b,4,,5qq8[8:5],5b,,,,,,,,,,
{16}E3,B3,B4,E5,E1,B8,B7,E7,A1,E2,B2,B3,B7,B6,E6,A5,A2,D3,A3,D4,A8,D8,A7,D7,
{8}2x,,3x,,
{16}4x/E7,B7,B8,E1,E5,B4,B3,E3,A5,E6,B6,B7,B3,B2,E2,A1,A6,D7,A7,D8,A4,D4,A3,D3,
{8}6x,,7x,,
{16}8x<5[2:1]/3,,3,,3,,3,,3,,3,,3,,6,4qq2[2:1],8,,8,,8,,8,,8,,8,,8,,2,6,
{16}1,7,2,6,3,5,4,6,3,7,2,8,1-5[8:1],7,2,6,
{4}3,4z8[4:1],,6b,
{8}3v8[8:1]/7-4[8:1],,37,,
{8}1q5[8:1],5v2[8:1],6,7-4[8:1]*-3[8:1],,7,,
{16}2,1,3v5[8:1],,,5,,,7,,
{8}8<4[4:1]/2,,8/4v7[8:1],2h[8:1],,
{16}2,3,4,,1p5[4:1],,
{16},,5pp7[3:1],,,4,,,3,,,2,,,1,,
{8}8v3[8:1]/4-7[8:1],,84,,
{8}2x-5[8:1],5V38[4:1],2,8v3[8:1],
{16},,5,6,
{8}7<5[8:1],4,3,2,1-5[8:1],8,
{8}1b/6,7-3[8:1],,7b/4,5-2[8:1],,5b/8-4[8:1],,8b/1,
{8},,3,24,5,46,3,
{8}6v1[8:1]/2-5[8:1],,62,,
{8}8p4[8:1],4v7[8:1],3,2-5[8:1]*-6[8:1],,2,,
{16}7,8,6v4[8:1],,,4,,,2,,
{8}1>5[4:1]/7,,1/5v2[8:1],7h[8:1],,
{16}7,6,5,,8V24[4:1],,
{8},4v2[5:1],,6,7,8h[8:3],4,,
{8}2-5[8:1],,,{16}7-4[8:1],8,{8}6,,,{16}1-5[8:1],8,{8}2,,,
{16}6,4,{8}8,24,35,46,
{24}1h[6:1]/7b,6x,5x,
{8}4x,,
{24}8h[6:1]/2b,3x,4x,
{8}5x,,
{24}6bqq4[4:1]/2bqq8[4:1],3x/7x,4x/8x,1x/5x,,,
{8}6b/2b,,
{12},,8h/4h,8x/4x,1x/5x,2x/6x,3x/7x,4x/8x,5x/1x,
{4}6h[32:31]/2h[1:1],,,,,,,
{32},,,,,,,
{4},,,,
{32},,,,,,,,,
{4},,,
{4},,,,
{8}E3,B4,C,E6,,B7,,B3/E5,,E2,,,,
{8}B5,E7,B8,E3/B4,,E2,E4/D5,,E1,B7,E3,B4,,,,,,,,
{8}5xh[4:1]/3xh[4:1],,,,{32}2h,B2,,,{8}6,5,4,3,4,5,6v5[5:1],{32}2h,B2,,,{8},,,
{8}4xh[4:1]/6xh[4:1],,,,{32}7h,B7,,,{8}3,4,5,6,5,4,3v4[5:1],{32}7h,B7,,,{8},,,
{8}7xh[4:1]/1xh[4:1],,,5-7[8:1],,4-1[8:1],,6-2[8:1],,8h[8:3],,,
{32}4h,B4,,,{8}1,2,3,,6,6,6,,34,56,18,2V41[2:1]/7V58[2:1],,,,,,,,
{8}Ch[8:1]/1,2,3,4,5,6,7,8,Ch[8:1]/7,6,5,4,
{12}1,5,3,7,5,1,
{4}3hx[4:1],8x<2[8:3],{16}18,E8,E7,E6,E5,E4,E3,,
{4}8hx[4:1],1x>7[8:3]b,{16}18,E2,E3,E4,E5,E6,E7,,
{4}1hx[4:1],5x<3[8:3],{16}45,E6,E7,E8,E1,E2,E3,,
{4}5hx[4:1],4x>6[8:3]b,{16}45,E4,E3,E2,E1,E8,E7,,
{8}5x,5x,,,3q7[8:5]*p7[8:5],,,,{4},,
{8},35,47,,
{8}2>5[4:1],,5V31[4:1],,,6,7,8V64[3:1],,,,1V75[4:1]*V35[4:1],,1,,,
{4}8x/4x,4>1[6:1],{16}48,7,6,5,4,3,2,1,
{4}8/5-1[8:1],5,{12}2,8,4,6,3,7,
{4}1x/5x<1[4:1],{16}51,2,3,4,5,6,7,8,1,2,3,4,
{4}5w1[8:1],5,3<5[8:1]/7<5[8:1],,
{4}8-4[8:1]/1-3[8:1],,
{8}15,2,3,4,85,7,6,5,24,3,4,5,
{8}6-4[8:1]/7,,8-4[8:1],8,,2,2,,
{8}8<1[3:1]/1>8[3:1],,,,,,
{24}7x,6x,5x,1x,2x,3x,
{4}4b/Cf,,,,,,,
{16}18,,3,4,
{4}2-6[8:1],12,5-8[8:1],45,
{16}2,1,2,1,3,8,3,8,4,7,4,7,5,6,5,6,
{24}4,3x,2x,5,6x,7x,1>8[8:3]b,2x,3x,8,7x,6x,
{8}1,,,,
{8}C/B6/B3,,24,3,57,6,1/4-8[8:1]b,{16}2,3,
{16}4b/7,,,,7v4[8:1]b,6,5b,,,,3v8[8:1]b,2,1b,,,,6v3[8:1]b,5,4b,,,,,,
{8}1-6[8:1]*-4[8:1],,1b/Cf,,
{4}2-5[8:1]/8,2/7-2[8:1],7/4-8[8:1],4/6-3[8:1],
{4}2-6[8:1]/6,2/8-5[8:1],4-1[8:1]/8,{16}4,,7,6,
{8}5<4[16:9],,,
{16}1q5[16:3],,,,,,,,,,
{16}6,2,6,2,7,3,7,3,8-4[8:1]b,4,8,4,Cf,,,,
{8}15,15,48,48,37,37,26,26,15,{16}71,62,53,4,3,2,1,8,71,62,53,,
{24}2,3,4,5b/E8/A7/E7/B7f,,,,,,7,6,5,4b/E2/A2/E3/B2f,,,,,
{24}E7/A7/E8/B7f,,,,81,72,63,5b/4b,,,,,,,,,
{24}6,7,8,1h[8:4]b/E4/A3/E3/B3f,,,,,,5hb[8:2],,,
{32},,,,,8pp6[8:5]/4pp2[8:5],7/3[8:4],6h/2h,
{8}5b/1b,,,,,,
{24},,,,E2,C,E6,E
&inote_7=(184)
{1},5x<4[4:14],,
{8}E2,,,B4,,,B8,,,E6,
{4},,,C/4x>5[4:14],,,,,,,,E6,,,E2,,
,
{8}E8,,C,E4,
{1}1x-3-5-7[4:14],
{8}E5,,,E2,,,E8,,,,,,,,,E1,
{4},
{8},E4,,,E6,,
{4}1x-5[4:7],B2,
{8}E8,B5,B1,E4,
{4},,,
{8}E7,E3,
{4}
,,
{16}A6,B6,C,B2,
{4}A2,
{8},,,36,1-4[10:1]/8-5[10:1],,,,
{8}6/2-5[8:1],,2,,8,1,26,,
{8}5-8[8:1],2-6[8:1],3,2-4[8:1]*-8[8:1],,2,,26,
5,,8/2pp4[8:1],,2,7qq5[8:1],,7,2>5[8:1],,
{16}E1,E8,E7,,,,
{8}E1,C,E5,
{8}6p1[4:1],,64,,2>4[8:1],5,26,7,
{8}1V35[4:1],,17,,6v8[8:1],1,62,3,
{8}5<1[4:1],,53,,2V41[6:1],5,6/2,8b,
{8},5-8[8:1],2,3-7[8:1]/5b,,3b/1,,,
{8}3/7-4[8:1],,7,,1,8,73,,
{8}4-1[8:1],7-3[8:1],6,7^5[8:1]*^1[8:1],,7,,73,,
{8}B3/B4,B7/B8,,56,47,38,
{8}1/2h[2:1],,6,7,8h[8:3],,,6h[4:1],,
{8}4-6[8:1],3,2,1,8-2[8:1],7,6,5,4^6[8:1],3,2,1,8^2[8:1],7,6,5,
{8}34,34,12,12,87,87,56,56,
{16}2,4,3,5,4,6,3,7,2,8,1,7,
{8}2v5[16:1]/6>2[4:1],,
{8}2<6[4:1],,5-8[8:1],5,,4qq8[8:6],4b/1,,,,,,,2,
{8}7-4[16:1]/3x<7[4:1],2,
{8}7>3[4:1],,4-1[8:1],4,,5pp1[8:6],5b/8,,,,,,8,,
{8}2-5[16:1]/6V42[4:1],7,
{8}2V86[4:1],,5-8[8:1],5,,4pp1[8:6],4b/1,,,,8,,2,,
{8}7-4[16:1]/3V57[4:1],2,
{8}7V13[4:1],,4-1[8:1],4,,5qq8[8:6],5b/8,,,,,,,,,,
{16}E3,B3,B4,E5,E1,B8,B7,E7,A1,E2,B2,B3,B7,B6,E6,A5,A2,D3,A3,D4,A8,D8,A7,D7,
{8}2x,,3x,,
{16}4x/E7,B7,B8,E1,E5,B4,B3,E3,A5,E6,B6,B7,B3,B2,E2,A1,A6,D7,A7,D8,A4,D4,A3,D3,
{8}6x,,7x,,
{16}8x-5[2:1]/3,,3,,3,,3,,3,,3,,3,,6,4>1[2:1],8,,8,,8,,8,,8,,8,,8,,3,5,
{16}1,7,2,6,3,5,4,6,3,7,2,8,1-5[8:1],7,2,6,
{4}3,4z8[4:1],,6b,
{8}3v8[8:1]/7-4[8:1],,37,,
{8}1q5[8:1],5v2[8:1],6,7-4[8:1]*-3[8:1],,7,,
{16}2,1,3v6[8:1],,,5,,,7,,
{8}8<5[8:1]/2,,8/4v7[8:1],2h[8:1],,
{16}3,4,5,,1p5[4:1],,
{16},,5pp7[3:1],,,4,,,3,,,2,,,1,,
{8}8v3[8:1]/4-7[8:1],,84,,
{8}2-5[8:1],5V38[4:1],2,8v3[8:1],
{16},,5,6,
{8}7<4[4:1],4,3,2,1-5[8:1],8,
{8}1b/6,7-3[8:1],,7b/4,5-2[8:1],,5b/8-4[8:1],,8b/3,
