&title=Game Changer
&artist=Poppin'Party
&first=0.07
&des=Hrayno
&des_5=Hrayno
&lv_5=14+
&inote_5=(198){4},{1},{4},,{16}1-5[8:1],
8,{8}2,
{4}1b/7-4-6-8[2:1],3,3,3,
4v6p2[2:1],8,8,8-4[8:1],
8b/2-5-3-1[2:1],6,6,6,
5-7[8:1],1-3[8:1],8-6[8:1],4-1[8:1],
4b-6-8v5[2:1],2,2,2-5[8:1],
2b/8<4q1[2:1],3,3,3,
{16}4,8,4,8,3,7,3,7,2,6,2,6,1,5,1,5,
{32}8,1,2,3,{8}4/6h[8:1],{16}5,7,5,7,4,6,3,5,{4}2,
{32}7b/8b,6/1,5/2,3/4,,,,,,,,,{8}B7/E7/B6/B2/B3/E3/Cf,{16},,4,5,4,5,{8}4,
3/7,{16}2,1,{8}2,8b/6b,,1b/3b,{32},,,,,,,,2b/1b,
3/8,4/7,6/5,,,,,,,,,{8}B5/E5/B4/B8/B1/E1/Cf,{16},,3,4,3,4,{8}3,
6/2,{16}7,8,{8}7,5b/3b,,,,,3/7,
{16}1-5[8:1],8,2,8,{8}1,6,6h[8:1],{32}8<5[8:1],1,2,3,,,,,{8}8-4[8:1],
{16}2,2,{8}8,{16}3,3,6,5,7,5,{4}8,
{8}4/7,{16}8-4[8:1],5,7,5,{8}8,3,3h[8:1],{32}1>4[8:1],8,7,6,,,,,{8}1-5[8:1],
{16}7,7,{8}1,{16}8,8,{32}4,3,2,1,8,7,6,5,{4}4b/8b,
{16}3/7,,,2,{4}1-5[8:1],{8}1/7,6,6,{16}4,5,
{4}4pp4b[4:1]*qq4b[4:1],{16},,,,,,,,3,4,{8}3,
{16}2/6,,,7,{4}8-4[8:1],{8}2,2,3,3,
4/7,{16}6,5,{4}6-2-8b[4:1]*-2-4b[4:1],{16},,,,,,,,3/7,
,,4,{8}5,7bxh[4:1]/B3/B4,{16},,1,8,2,1,{8}3,
{16}6/2,,,5,{8}4,2bxh[4:1]/B6/B5,{16},,8,1,7,8,{8}6,
{16}3/5,,,2,{8}1,8bxh[4:1]/B3/B4,{16},,5,6,4,5,{8}3,
7/1-4[8:1],2,1-6[8:1],8,{4}1/5-2[8:1]*-8[8:1],5b,
{8}3/7,{16}4,5,3,5,{8}2h[4:1],{16},,1,8,7,6,{8}5,
{16}8,4,1,5,2,6,3,7,{32}4,5,6,7,8,1,2,3,{4}4/8<5[8:1],
{8}8>3[8:1],4,8-5[8:1],4,8-3[8:1],4,8,4-6[8:1]*>1[8:1],
,4-8[8:1]*v7[8:1],,4,{32},,,,1,2,3,4,{4}7-4[8:1]/5-1[8:1],
7b/5b,5h[4:1],{24}2,1,8,5,6,7,2,3,4,1,8,7,
{16}5-1[8:1],,,6,{8}5,7h[4:1],{16},,8,7,1,6,{8}2,
4/3,1,5/6,8,3/7,5,2/6,4,
7/8,7/8,5/3,5/3,{16}2,6,1,7,4,5,2,6,
{2}1b-3-8-4[2:1],{32}4x-8-3-1b[2:1],5x,6x,7x,,,,,,,,,,,,,{2}5-7-4-8[2:1],
{32}8x-4b[8:1],1x,2x,3x,,,,,,,,,,,,,{2}2-5-3-8[2:1],
{4}7bx,7bx,
{32}B2,B3,{16}B4,{32},,,,B8,B7,{16}B6,{32},,,,A1,A2,{16}A3,{32},,,,A7,A6,{16}A5,,,{2}2-5-3-1[2:1],
{32}1x-5-3-1b[2:1],8x,7x,6x,,,,,,,,,,,,,{8}8qq8[4:1],
,,,,2bx,{4}2bx,
{12}3,4,1,6,5,8,{32}2x,3,{48}4,6,,,,{12}1,{96}7x,,,6,,,{48}5,3,,,,{12}8,
{2}1bxh[2:1],C,
{1}2x>5-1b[2:1]/8x<5-1[2:1],
7x<4-8[2:1]/1x>4-8b[2:1],
1x>5pp3b[4:3]*<5[4:1],
{2}8xh[2:1],{32}1,2,3,4,{8}1<6[8:1]/5-2b[8:1],,5b/1b,
{16},,1,5,{8}1,{16}7,3,{8}7,{16}2,6,{8}2,4/8,
{16}3,6,2,6,{8}1,2/5,{16}6,3,7,3,{8}8,4/7,
4/7,8/2-5[8:1],3,2/6-8[8:1],7,6/1-4[8:1]*-3[8:1],2,1b-7[8:1]*-6[8:1],
,1bv4[8:1]*-3[8:1],,1bv6[8:1]*-7[8:1],,1b,,5bx/2bx,
{16},,3,4,{8}3,{16}6,5,{8}6,{16}3,4,{8}3,5/1,
3-8b[8:1],7-4[8:1],3,7,{32},,,,8,1,2,3,4,5,6,7,{8}8b/4b<7[8:1],
,8-3[8:1],8,6-2[8:1],6,4-1[8:1],4,7h[4:1],
{16},,8,6,8,6,2,4,2,4,{8}1w5b[8:1],{32},,,,1b,B1,C,B6/B5/B4,
,,,,{16}2,4,{8}2,{16}7,5,{8}7,{16}1,6,{8}1,8/7,
{16}2,6,3,6,{8}4,8/5,{16}7,3,6,3,{8}5,1/4,
1/4,5/8-3[8:1],1,8/5-1[8:1],6,5/4>1[8:1]*<7[8:1],3,4b-8[8:1]*v1[8:1],
,4b-2[8:1]*<7[8:1],,4bw8[8:1],,4b,,2/6,
2/6,6/2,2/6,{16}3,4,3,5,4,5,3,4,{8}2,
,7/1,1/7,{16}6,5,6,4,5,4,6,5,{8}7,
,3/8,2,1/7,6,{16}1,8,1,8,{32}2,3,4,5,
{2}1bxh[8:3]/6bxh[8:3],{16}5,8,4,7,3,6,2,5,
{8}1-5[8:1],{16}7,7,{8}1-3[8:1],8-4[8:1],1v6[8:1],8,1,5h[8:1],
{24}7x,8,1,4,{48},{16}4,{24}8x,1,2,5,{48},{16}5,3,4,{8}3,{4}2/6,
{8}8-4[8:1],{16}2,2,{8}8-6[8:1],1-5[8:1],8v3[8:1],1,8,4h[8:1],
{24}2x,1,8,5,{48},{16}5,{24}1x,8,7,4,{48},{16}4,6,5,{8}6,{4}7b/3b,
{1}6h[1:1],
3h[1:1],
5h[1:1],
4h[1:1],
{24}6,5,6,5,6,5,{4}6,{24}3,4,3,4,3,4,{4}3,
{32}1,8,{48}7,5,,,,{12}5,{96}1,,,2,,,{48}3,5,,,,{12}5,{32}1,8,{48}7,5,,,,{12}5,{96}1/6xh[4:1],,,2,,,{16}3,{48},,,,,,{24}3x,
4x,6x,5x,3x,4x,6x,5x,2x,3x,7x,6x,2x,3x,7x,6x,1x,2x,8x,7x,1x,2x,8x,7x,
{1}1bxh[1:1],
{8}C,{4},,,{32}2b/1b-5[8:1],3,4,5,
{8}8,1,{16}4,4,6,5,{8}6,{16}4,8,3,8,{8}2,
7/1,{16}3,4,{8}3,1h[8:3]/5h[8:3],{32},,,,,,,,,,,,5bx/1bx-6-8b[4:1],2bx/6bx,3bx/7bx,4bx/8bx,
,,,,{8}1/2-4[8:1],3,2v5[8:1],1,2/8-5b[8:1]*-6b[8:1],7,8b-3b[8:1]*-2b[8:1],
,8b-6b[8:1]*v5b[8:1],,8bv3b[8:1]*-2b[8:1],,8b,,7bx/4bx,
{16}6,7,5,3,4,2,{8}7-5[8:1],8,7-3[8:1]/1-3b[8:1],2,7/1,
{16},,4,5,{8}4,3/6,2,7/1<6[8:1],{32},,,,1/2b,3,4,5,
,,,,{16}3,4,3,5,4,6,2,7,{8}1-4[8:1]*-6[8:1],2/8,{16}1b,B7/C/B3,
,,3,5,2,6,1,7,3,6,{8}4w8b[8:1],{32},,,,4b,B4,C,B7/B8/B1,
,,,,{8}6,{24}7/1,2,3,5,,,8/2,3,4,6,,,7/1,2,3,5,,,{8}5,
3,{24}2/8,7,6,4,,,1/7,6,5,3,,,2/8,7,6,1b,,,,,,{8}6,
{24}7/1,2,3,5,,,2/8,7,6,4,,,{8}3,{32}1b/8b,2/7,3/6,4/5,
,,,,1b/8b,2/7,3/6,4/5,,,,,1b/8b,2/7,3/6,4/5,,,,,1b/8b,2/7,3/6,4/5,,,,,1b/8h[8:3],2,3,4,
{4}5,{16}6,7,5,6,4,5,3,4,{8}2b,{32}8b/1bxh[8:3],7,6,5,
{4}4,{16}3,2,4,3,5,4,6,5,{8}7b,{48}8b/7bxh[4:1],1,{96},,{32}2,3,
{8}4,6,5/7,{16}4,6,4,6,3,5,3,5,{8}1b,
{16},,1,4,2,5,3,6,4,8,5,7,4,6,3,5,
{8}2,{16}6,5,{8}6,{16}3,4,{8}3,2/8,{32}1,2,3,4,1,8,7,6,
,,,,{16}3,4,{8}3,{16}6,5,{8}6,7/1,{32}8,7,6,5,8,1,2,3,
,,,,{16}4,5,4,5,3,6,3,6,2,7,2,7,{32}1b,2/8,7/3,6/4,
{2}5,{16}3,7,3,7,2,6,2,6,
{4}1b>4[8:1],{32}1b/5b-2[8:1],6,7,8,,,,,{8}5,{16}8,8,{8}1,7/1,
{16}2,6,3,6,{8}4,2b/8bh[4:1],{32},,,,1,2,3,4,1,2,3,4,1,2,3,4,
,,,,8,7,6,5,8,7,6,5,8,7,6,5,,,,,{8}3,2-4[8:1]/6-8[8:1],1,
{4}6/2-6[8:1],2-8[8:1]/7-3[8:1],2/7-5[8:1],{32}7/1,2,3,4,,,,,{4}8b<5[8:1],
{32}8b/4b-7[8:1],3,2,1,,,,,{8}4,{16}1,1,{8}8,2/8,
{16}7,3,6,3,{8}5,7b/1bh[4:1],{32},,,,8,7,6,5,8,7,6,5,8,7,6,5,
,,,,1,2,3,4,1,2,3,4,1,2,3,4,,,,,{8}7,8-5[8:1],1,
2/8-3[8:1],1,6/8<5[8:1],7,2/8>3[8:1],1,{4}8/6,
{8}4bx/6bx,{16}4,8,3,7,2,6,{32}1b,2,{16}3,5,5,4,7,3,3,
{24}8b,7,6,4,{48},{16}4,5,2,7,7,{24}1b,2,3,6,{48},{16}4,5,5,5,3,
{24}8b,7,6,3,{48},{16}5,4,4,4,6,{4}1bw5[8:1],1b,
{16}2b,5,4,5,1b,6,5,6,2b,5,4,5,1b,6,5,6,
{8}3b,{24}7,6,5,{8}3b,{24}8,7,6,{8}3b,{24}1,8,7,{32}3,4,5,6,7,8,1,2,
{8}6b,{24}2,3,4,{8}6b,{24}1,2,3,{8}6b,{24}8,1,2,{8}5b,6/4,
{16}3,4,2,5,1,6,8,7,4,5,3,6,2,7,1,8,
{24}2,3,4,6,7,8,3,4,5,7,8,1,{32}5,6,7,8,1,2,3,4,{4}5xh[16:3]/1xh[16:3],
{32}5bx/1bxV35-2[2:1],4b/8b,3b/7b,2b/6b,,,,,{4}7x,7x,7x,
8V64-7[2:1],2x,2x,2x,
{8}1/8,{16}3,4,{8}3,{16}6,5,{8}6,{16}2,4,{8}2,{16}7,5,
{8}7,{16}3,4,{8}2,{16}6,5,{8}7,2,3b/7b,1b/5b,
E
